вход на сайт

Имя пользователя :
Пароль :

Восстановление пароля Регистрация
Шестой (Самвел Гаспаров, боевик, 1981) [DVDRip, Не требуется]
Рейтинг:
(голосов: 1)



[img]{THEME}/images/logopost.png[/img]



Шестой

Год выпуска: 1981
Страна: СССР
Производство: Студия Горького
Жанр: боевик

Режиссёр: Самвел Гаспаров
В ролях: Сергей Никоненко, Михаил Козаков, Владимир Грамматиков, Михаил Пуговкин, Евгений Бакалов, Тимофей Спивак, Сергей Ульянов, Махарбек Кокоев, Лариса Белогурова, Нина Меньшикова

Перевод: Не требуется
Субтитры: Отсутствуют

Описание:
Отгремела гражданская война. В маленьком южном городке появился шестой по счету начальник милиции. Пятеро предшественников Глодова вместе с другими активистами были зверски убиты бандой неуловимого Вахрамеева. И теперь Глодову с несколькими верными помощниками предстояла смертельная схватка с сильным врагом…


Дополнительно:
MediaInfo ▼Text
Общее
Полное имя :J:ШестойШестой.avi
Формат :AVI
Размер :735 MiB
Продолжительность :01:19:29.489
Общий поток :1 292 Kbps
Программа кодирования :Lavf51.12.1

Видео
Идентификатор :0
Формат :MPEG-4 Visual
Профиль формата :[email protected]
Параметр BVOP формата :No
Параметр Qpel формата :No
Параметр GMC формата :0
Параметр Matrix формата :Default (H.263)
Идентификатор кодека :DIVX
Продолжительность :1h 19mn 29s 440ms
Битрейт :1 152 Kbps
Ширина :688 pixels
Высота :288 pixels
Соотношение сторон :2.400
Частота кадров :25.000 fps
Глубина цвета :8 bits
Подвыборка цветности :4:2:0
Цветовое пространство :YUV
Тип развертки :Progressive
Бит/(Пиксели*Кадры) :0.233
Размер потока :655 MiB (89%)
Библиотека кодирования :Lavc51.40.4

Аудио #1
Идентификатор :1
Формат :MPEG Audio
Идентификатор кодека :55
Продолжительность :01:19:29.489
Вид битрейта :Constant
Битрейт :128 Kbps
Канал(ы) :2 channels
Частота :44.1 KHz
Метод сжатия :Lossy
Размер потока :72.8 MiB (10%)



Тех. данные:
Качество:DVDRip
Продолжительность:01:19:29 час

Формат: AVI
Видео кодек: Lavc
Аудио кодек: MPA1L3
Видео: 688 x 288 (2.40:1), 25.000 fps, 1 152 Kbps, 0.233 bit/pixel
Аудио : 44.1 KHz, , 2 channels (), 128 Kbps



2b38f421ea8099e9c9503b6e6ed69c34d1d1276bШестой (Самвел Гаспаров, боевик, 1981) [DVDRip, Не требуется] Шестой (Самвел Гаспаров, боевик, 1981) [DVDRip, Не требуется] " />

Аплоадер: Админ, дата: 1-04-2013, 01:23, торрент скачан: 359 раз

Понравилась раздача? Посмотрите эти:
  • Василий и Василиса (Ирина Поплавская, драма, мелодрама, биография, 1981) [D ...
  • В небе «ночные ведьмы» (Евгения Жигуленко, военный, 1981) [DVDRip, Не требу ...
  • 34-й скорый (Андрей Малюков, боевик, драма, 1981) [DVDRip, Не требуется]
  • Акваланги на дне (Евгений Шерстобитов, боевик, приключения, семейный, 1965) ...
  • Мужики!.. (Искра Бабич, драма, 1981) [DVDRip, Не требуется]
  • Эзоп (Олег Рябоконь, драма, история, 1981) [DVDRip, Не требуется]
  • Цыганское счастье (Сергей Никоненко, драма, 1981) [DVDRip, Не требуется]
  • Семьдесят два градуса ниже нуля (Сергей Данилин, Евгений Татарский, боевик, ...
  • Сапоги (Владимир Немоляев, короткометражка, драма, комедия, 1957) [DVDRip, ...
  • Ответный ход (Михаил Туманишвили, боевик, драма, приключения, военный, 1981 ...
  • Всё наоборот (Виталий Фетисов, Владимир Грамматиков, мелодрама, комедия, 19 ...
  • Карнавал (2 части из 2) (Татьяна Лиознова, мюзикл, комедия, 1981) [DVDRip, ...
  • Капитанская дочка (Владимир Каплуновский, драма, 1958) [DVDRip, Не требуетс ...
  • Хлеб, золото, наган (Самвел Гаспаров, боевик, 1980 год) [DVDrip, оригинал] ...
  • Шестой (Самвел Гаспаров, Боевик, 1981) [DVDRip , Оригинал (русский/английск ...
  • Мульт-Салют. 23 ч. из 30: Приключения Васи Куролесова/Приключения пингвинен ...
  • Куда он денется! (Георгий Юнгвальд-Хилькевич, комедия, 1981) [DVDRip, Не тр ...
  • Небывальщина (Сергей Овчаров, комедия, 1983) [DVDRip, Не требуется]
  • Спортлото-82 (Леонид Гайдай, комедия, приключения, 1982) [DVDRip, Не требуе ...
  • Последний переход (Амангельды Тажбаев, боевик, 1981) [DVDRip, Профессиональ ...
  • Капкан для киллера (Самвел Гаспаров, Боевик, 2008 г) [DVDRip, Oригинал]
  • Дядюшкин сон (2 части из2) (Александр Орлов, драма, комедия, 1981) [DVDRip, ...
  • Вера, надежда, любовь (Владимир Грамматиков, приключения, 1984) [DVDRip, Не ...
  • Как дома, как дела? (Самвел Гаспаров, драма, семейный, 1987) [TVRip, Не тер ...
  • Целуются зори (Сергей Никоненко, комедия, 1978) [DVDRip, Не требуется]
  • Информация
    Посетители, находящиеся в группе Гости, не могут оставлять комментарии к данной публикации.