вход на сайт

Имя пользователя :
Пароль :

Восстановление пароля Регистрация
Эзоп (Олег Рябоконь, драма, история, 1981) [DVDRip, Не требуется]
Рейтинг:
(голосов: 1)



[img]{THEME}/images/logopost.png[/img]



Эзоп

Год выпуска: 1981
Страна: СССР
Производство: Лентелефильм
Жанр: драма, история

Режиссёр: Олег Рябоконь
В ролях: Валентин Гафт, Александр Калягин, Наталья Каресли, Владислав Пази, Любовь Полищук, Олег Табаков, Юрий Мальцев

Перевод: Не требуется
Субтитры: Отсутствуют

Описание:
Это веселая и поучительная история о греческом рабе Эзопе, подарившем мировой литературе свои гениальные произведения, и о его глупом хозяине, обладающем деньгами и властью, но начисто лишенным доброты и порядочности.


Дополнительно:
MediaInfo ▼Text
Общее
Полное имя :J:ЭзопEzop.avi
Формат :AVI
Размер :745 MiB
Продолжительность :01:43:44.960
Общий поток :1 003 Kbps
Программа кодирования :VirtualDubModRus 1.5.10.2 (build 2542/release)
Библиотека кодирования :VirtualDubMod build 2542/release

Видео
Идентификатор :0
Формат :MPEG-4 Visual
Параметр BVOP формата :1
Параметр Qpel формата :No
Параметр GMC формата :0
Параметр Matrix формата :Default (H.263)
Идентификатор кодека :DX50
Продолжительность :1h 43mn 44s 960ms
Битрейт :866 Kbps
Ширина :640 pixels
Высота :480 pixels
Соотношение сторон :1.333
Частота кадров :25.000 fps
Глубина цвета :8 bits
Подвыборка цветности :4:2:0
Цветовое пространство :YUV
Тип развертки :Progressive
Бит/(Пиксели*Кадры) :0.113
Размер потока :642 MiB (86%)
Библиотека кодирования :DivX503b2676p

Аудио #1
Идентификатор :1
Формат :MPEG Audio
Идентификатор кодека :55
Продолжительность :01:43:44.952
Вид битрейта :Constant
Битрейт :128 Kbps
Канал(ы) :2 channels
Частота :48.0 KHz
Метод сжатия :Lossy
Размер потока :95.0 MiB (13%)



Тех. данные:
Качество:DVDRip
Продолжительность:01:43:40 час

Формат: AVI
Видео кодек: DivX
Аудио кодек: MPA1L3
Видео: 640 x 480 (4:3), 25.000 fps, 866 Kbps, 0.113 bit/pixel
Аудио : 48.0 KHz, , 2 channels (), 128 Kbps



ed8ca9fef43382ead0be29fc186d7cbcaf14952eЭзоп (Олег Рябоконь, драма, история, 1981) [DVDRip, Не требуется] Эзоп (Олег Рябоконь, драма, история, 1981) [DVDRip, Не требуется] " />

Аплоадер: Админ, дата: 1-04-2013, 01:17, торрент скачан: 359 раз

Понравилась раздача? Посмотрите эти:
  • Дни хирурга Мишкина (3 части из 3) (Вадим Зобин, драма, 1967) [DVDRip, Не т ...
  • В небе «ночные ведьмы» (Евгения Жигуленко, военный, 1981) [DVDRip, Не требу ...
  • 34-й скорый (Андрей Малюков, боевик, драма, 1981) [DVDRip, Не требуется]
  • Агония (2 части из 2) (Элем Климов, драма, биография, история, 1981) [DVDRi ...
  • История кавалера де Грие и Манон Леско (Роман Виктюк, драма, мелодрама, 197 ...
  • Выстрел (Наум Трахтенберг, драма, 1966) [DVDRip, Не требуется]
  • Чужая жена и муж под кроватью (Виталий Мельников, драма, 1984) [DVDRip, Не ...
  • Плохой хороший человек (Иосиф Хейфиц, драма, история, 1973) [DVDRip, Не тре ...
  • Ох, уж эта Настя! (Юрий Победоносцев, семейный, 1972) [DVDRip, Не требуется ...
  • Балтийское небо (2 части из 2) (Владимир Венгеров, драма, военный, история, ...
  • Всё наоборот (Виталий Фетисов, Владимир Грамматиков, мелодрама, комедия, 19 ...
  • Опасный возраст (Александр Прошкин, драма, 1981) [DVDRip, Не требуется]
  • Оптимистическая трагедия (Самсон Самсонов, драма, военный, история, 1963) [ ...
  • Комиссар (Александр Аскольдов, драма, военный, 1967) [DVDRip, Не требуется] ...
  • Фантазеры (Исаак Магитон, И. Сафарова, детский, 1965) [DVDRip, Не требуется ...
  • Ты и я (Лариса Шепитько, драма, 1971) [DVDRip, Не требуется]
  • Степь (2 части из 2) (Сергей Бондарчук, драма, история, 1977) [DVDRip, Не т ...
  • Сотрудник ЧК (Борис Волчек, боевик, история, 1963) [DVDRip, Не требуется]
  • Путь к причалу (Георгий Данелия, драма, 1963) [DVDRip, Не требуется]
  • Эзоп ( Олег Рябоконь, драма, 1981) [DVDRip]
  • Болотные солдаты (Александр Мачерет, драма, военный, 1938) [DVDRip, Не треб ...
  • Дядюшкин сон (2 части из2) (Александр Орлов, драма, комедия, 1981) [DVDRip, ...
  • В добрый час! (Виктор Эйсымонт, драма, мелодрама, 1956) [DVDRip, Не требует ...
  • Мексиканец (Владимир Каплуновский, драма, 1955) [DVDRip, Не требуется]
  • Моонзунд (2 части из 2) (Александр Муратов, драма, мелодрама, военный, исто ...
  • Информация
    Посетители, находящиеся в группе Гости, не могут оставлять комментарии к данной публикации.