вход на сайт

Имя пользователя :
Пароль :

Восстановление пароля Регистрация
Гражданин Лёшка (Виктор Крючков, комедия, 1980) [DVDRip, Не требуется]
Рейтинг:
(голосов: 1)



[img]{THEME}/images/logopost.png[/img]



Гражданин Лёшка

Год выпуска: 1980
Страна: СССР
Производство: Мосфильм
Жанр: комедия

Режиссёр: Виктор Крючков
В ролях: Борис Галкин, Марина Яковлева, Александр Пашутин, Николай Гринько, Александр Анисимов, Алексей Жарков, Николай Карнаухов, Борис Юрченко, Юрий Чернов, Раднэр Муратов

Перевод: Не требуется
Субтитры: Отсутствуют

Описание:
Молодой бригадир лесорубов Лешка Игнатов с горечью для себя видит, что огромные запасы леса, добытые нелегким трудом, гниют на обочинах дороги из-за простой бесхозяйственности. Подняв тревогу в леспромхозе и не получив поддержки в районе, он летит в Москву…


Дополнительно:
MediaInfo ▼Text
Общее
Полное имя :J:Гражданин ЛешкаGrazhdanin leshka.avi
Формат :AVI
Размер :1.34 GiB
Продолжительность :01:22:54.920
Общий поток :2 322 Kbps
Программа кодирования :VirtualDubMod 1.5.10.2 (build 2542/release)
Библиотека кодирования :VirtualDubMod build 2542/release

Видео
Идентификатор :0
Формат :MPEG-4 Visual
Параметр BVOP формата :Yes
Параметр Qpel формата :No
Параметр GMC формата :0
Параметр Matrix формата :Default (H.263)
Идентификатор кодека :DX50
Продолжительность :1h 22mn 54s 920ms
Битрейт :2 200 Kbps
Ширина :720 pixels
Высота :400 pixels
Соотношение сторон :1.800
Частота кадров :25.000 fps
Глубина цвета :8 bits
Подвыборка цветности :4:2:0
Цветовое пространство :YUV
Тип развертки :Progressive
Бит/(Пиксели*Кадры) :0.306
Размер потока :1.27 GiB (95%)
Библиотека кодирования :DivX503b2510p

Аудио #1
Идентификатор :1
Формат :MPEG Audio
Идентификатор кодека :55
Продолжительность :01:22:54.912
Вид битрейта :Constant
Битрейт :112 Kbps
Канал(ы) :1 channel
Частота :48.0 KHz
Метод сжатия :Lossy
Размер потока :66.4 MiB (5%)



Тех. данные:
Качество:DVDRip
Продолжительность:01:22:50 час

Формат: AVI
Видео кодек: DivX
Аудио кодек: MPA1L3
Видео: 720 x 400 (16:9), 25.000 fps, 2 200 Kbps, 0.306 bit/pixel
Аудио : 48.0 KHz, , 1 channel (), 112 Kbps
574c9a9245bd2351b8914b7bf8234d910da33be5Гражданин Лёшка (Виктор Крючков, комедия, 1980) [DVDRip, Не требуется] Гражданин Лёшка (Виктор Крючков, комедия, 1980) [DVDRip, Не требуется] " />

Аплоадер: Админ, дата: 13-04-2013, 17:43, торрент скачан: 359 раз

Понравилась раздача? Посмотрите эти:
  • "Мерседес" уходит от погони (Юрий Ляшенко, военный, 1980) [DVDRip, Не требу ...
  • Аленка (Борис Барнет, комедия, 1961) [DVDRip, Не требуется]
  • Люди и манекены (4 части из 4) (Виктор Храмов, Аркадий Райкин, комедия, 197 ...
  • Из жизни отдыхающих (Николай Губенко, драма, мелодрама, 1980) [DVDRip, Не т ...
  • Два долгих гудка в тумане (Валерий Родченко, боевик, 1980) [DVDRip, Не треб ...
  • Шанс (Александр Майоров, фантастика, фэнтези, мелодрама, комедия, приключен ...
  • Ход конем (Татьяна Лукашевич, комедия, 1962) [DVDRip, Не требуется]
  • Приключения Толи Клюквина (Виктор Эйсымонт, комедия, семейный, 1964) [DVDRi ...
  • Парень из нашего города (Александр Столпер, Борис Иванов, драма, военный, 1 ...
  • Ау-у! (Геральд Бежанов, Юрий Горковенко, Виктор Крючков, комедия, 1975) [DV ...
  • Друг мой, Колька!.. (Александр Митта, Алексей Салтыков, драма, 1961) [DVDRi ...
  • Лес (Владимир Мотыль, драма, 1980) [DVDRip, Не требуется]
  • Шелковица / Молодость. Выпуск 2 (Геннадий Мелконян, Андрей Ермаш, Автандил ...
  • Печники (Виктор Храмов, драма, 1982) [DVDRip, Не требуется]
  • Славный малый (Борис Барнет, военный, 1943) [DVDRip, Не требуется]
  • Уходя - уходи (Виктор Трегубович, комедия, 1978) [DVDRip, Не требуется]
  • Садко (Александр Птушко, фэнтези, приключения, 1952) [DVDRip, Не требуется] ...
  • Подпольный обком действует (4 части из 4) (Анатолий Буковский, военный, 197 ...
  • Гений (2 части из 2) (Виктор Сергеев, Комедия, криминал, 1991) [DVDRip, Не ...
  • Целуются зори (Сергей Никоненко, комедия, 1978) [DVDRip, Не требуется]
  • Информация
    Посетители, находящиеся в группе Гости, не могут оставлять комментарии к данной публикации.