вход на сайт

Имя пользователя :
Пароль :

Восстановление пароля Регистрация
Выстрел (Наум Трахтенберг, драма, 1966) [DVDRip, Не требуется]
Рейтинг:
(голосов: 1)



[img]{THEME}/images/logopost.png[/img]



Выстрел

Год выпуска: 1966
Страна: СССР
Производство: Мосфильм
Жанр: драма

Режиссёр: Наум Трахтенберг
В ролях: Михаил Козаков, Юрий Яковлев, Ариадна Шенгелая, Олег Табаков, Валерий Бабятинский, Владлен Давыдов, Борис Новиков, Лев Поляков, Татьяна Конюхова, Владимир Прокофьев

Перевод: Не требуется
Субтитры: Отсутствуют

Описание:
Получив пощечину, офицер Сильвио вызывает графа-обидчика на дуэль. Однако неотложные обстоятельства заставляют офицера уехать, оставив за собой право выстрела. Через много лет, накануне свадьбы графа, Сильвио возвращается требовать возмездия.


Дополнительно:
MediaInfo ▼Text
Общее
Полное имя :D:ВыстрелVystrel.DVDRip.avi
Формат :AVI
Размер :1.37 GiB
Продолжительность :01:13:12.640
Общий поток :2 675 Kbps
Программа кодирования :VirtualDubModRus 1.5.10.2 (build 2542/release)
Библиотека кодирования :VirtualDubMod build 2542/release

Видео
Идентификатор :0
Формат :MPEG-4 Visual
Профиль формата :Advanced [email protected]
Параметр BVOP формата :2
Параметр Qpel формата :No
Параметр GMC формата :0
Параметр Matrix формата :Default (MPEG)
Идентификатор кодека :XVID
Продолжительность :1h 13mn 12s 640ms
Битрейт :2 217 Kbps
Ширина :704 pixels
Высота :528 pixels
Соотношение сторон :1.333
Частота кадров :25.000 fps
Глубина цвета :8 bits
Подвыборка цветности :4:2:0
Цветовое пространство :YUV
Тип развертки :Progressive
Бит/(Пиксели*Кадры) :0.239
Размер потока :1.13 GiB (83%)
Библиотека кодирования :XviD0050

Аудио #1
Идентификатор :1
Формат :AC-3
Формат/Информация :Audio Coding 3
Идентификатор кодека :2000
Продолжительность :01:13:12.608
Вид битрейта :Constant
Битрейт :448 Kbps
Канал(ы) :6 channels
Расположение каналов :Front: L C R, Side: L R, LFE
Частота :48.0 KHz
Битовая глубина :16 bits
Метод сжатия :Lossy
Размер потока :235 MiB (17%)


&n
eadd2a6be69ba826f0f0e74cae1a88f3cf940cc4Выстрел (Наум Трахтенберг, драма, 1966) [DVDRip, Не требуется] Выстрел (Наум Трахтенберг, драма, 1966) [DVDRip, Не требуется] " />

Аплоадер: Админ, дата: 13-04-2013, 17:27, торрент скачан: 359 раз

Понравилась раздача? Посмотрите эти:
  • Вертикаль (Борис Дуров, Станислав Говорухин, приключения, 1966) [DVDRip, Не ...
  • Нейтральные воды (Владимир Беренштейн, драма, 1968) [DVDRip, Не требуется]
  • Дама с собачкой (Иосиф Хейфиц, драма, мелодрама, 1959) [DVDRip, Не требуетс ...
  • Эзоп (Олег Рябоконь, драма, история, 1981) [DVDRip, Не требуется]
  • Четвертый (Александр Столпер, драма, 1972) [DVDRip, Не требуется]
  • Последняя жертва (Петр Тодоровский, драма, мелодрама, 1975) [DVDRip, Не тре ...
  • Вся королевская рать (3 части из 3) (Наум Ардашников, Александр Гуткович, д ...
  • Воскресный папа (Наум Бирман, драма, семейный, 1985) [DVDRip, Не требуется] ...
  • Волшебная сила (Наум Бирман, мюзикл, комедия, семейный, 1970) [DVDRip, Не т ...
  • Земля отцов (Шакен Айманов, драма, 1966) [DVDRip, Не требуется]
  • Оптимистическая трагедия (Самсон Самсонов, драма, военный, история, 1963) [ ...
  • Тропой бескорыстной любви (Агаси Бабаян, драма, 1972) [DVDRip, Не требуется ...
  • Чайка (Юлий Карасик, драма, 1972) [DVDRip, Не требуется]
  • Печники (Виктор Храмов, драма, 1982) [DVDRip, Не требуется]
  • Бабушки надвое сказали (Валерий Харченко, Юрий Клебанов, комедия, 1979) [DV ...
  • Скверный анекдот (Александр Алов, Владимир Наумов, комедия, 1966) [DVDRip, ...
  • Донская повесть (Владимир Фетин, драма, 1964) [DVDRip, Не требуется]
  • Дядюшкин сон (Константин Воинов, драма, 1966) [DVDRip, Не требуется]
  • Мексиканец (Владимир Каплуновский, драма, 1955) [DVDRip, Не требуется]
  • За облаками – небо (Юрий Егоров, драма, 1973) [DVDRip, Не требуется]
  • Информация
    Посетители, находящиеся в группе Гости, не могут оставлять комментарии к данной публикации.