вход на сайт

Имя пользователя :
Пароль :

Восстановление пароля Регистрация
Высота (Александр Зархи, мелодрама, 1957) [DVDRip, Не требуется]
Рейтинг:
(голосов: 1)



[img]{THEME}/images/logopost.png[/img]



Высота

Год выпуска: 1957
Страна: СССР
Производство: Мосфильм
Жанр: мелодрама

Режиссёр: Александр Зархи
В ролях: Николай Рыбников, Инна Макарова, Геннадий Карнович, Валуа
, Василий Макаров, Марина Стриженова, Борис Ситко, Сергей Ромоданов, Елена Максимова, Лев Борисов, Леонид Чубаров

Перевод: Не требуется
Субтитры: Отсутствуют

Описание:
На строительство комбината приезжает бригада монтажников-верхолазов, им предстоит осуществить монтаж домны по новому методу. Кое-кто с перепугу уезжает в командировку, а в целом предложение принято и верхолазы приступают к работе.

Фильм о непростых характерах простых советских людей, умеющих трудиться, мечтать, любить — строить большое человеческое счастье.


Дополнительно:
MediaInfo ▼Text
Общее
Полное имя :J:ВысотаVysota.avi
Формат :AVI
Размер :700 MiB
Продолжительность :01:28:09.240
Общий поток :1 111 Kbps
Программа кодирования :VirtualDubMod 1.5.10.2 (build 2540/release)
Библиотека кодирования :VirtualDubMod build 2540/release

Видео
Идентификатор :0
Формат :MPEG-4 Visual
Профиль формата :Advanced [email protected]
Параметр BVOP формата :1
Параметр Qpel формата :No
Параметр GMC формата :0
Параметр Matrix формата :Custom
Идентификатор кодека :XVID
Продолжительность :1h 28mn 9s 240ms
Битрейт :973 Kbps
Ширина :640 pixels
Высота :464 pixels
Соотношение сторон :1.379
Частота кадров :25.000 fps
Глубина цвета :8 bits
Подвыборка цветности :4:2:0
Цветовое пространство :YUV
Тип развертки :Progressive
Бит/(Пиксели*Кадры) :0.131
Размер потока :613 MiB (88%)
Библиотека кодирования :XviD0050

Аудио #1
Идентификатор :1
Формат :MPEG Audio
Идентификатор кодека :55
Продолжительность :01:28:08.544
Вид битрейта :Constant
Битрейт :128 Kbps
Канал(ы) :2 channels
Частота :48.0 KHz
Метод сжатия :Lossy
Размер потока :80.7 MiB (12%)



Тех. данные:
Качество:DVDRip
Продолжительность:01:28:00 час

Формат: AVI
Видео
1e3d11d25712fbe23205b68a53300c7dd0c59652Высота (Александр Зархи, мелодрама, 1957) [DVDRip, Не требуется] Высота (Александр Зархи, мелодрама, 1957) [DVDRip, Не требуется] " />

Аплоадер: Админ, дата: 13-04-2013, 17:22, торрент скачан: 359 раз

Понравилась раздача? Посмотрите эти:
  • Василий и Василиса (Ирина Поплавская, драма, мелодрама, биография, 1981) [D ...
  • Борец и клоун (Борис Барнет, Константин Юдин, драма, спорт, 1957) [DVDRip, ...
  • Бой под Соколом (Александр Разумный, военный, 1942) [DVDRip, Не требуется]
  • Анна Каренина (2 части из 2) (Александр Зархи, драма, мелодрама, 1967) [DVD ...
  • Летят журавли (Михаил Калатозов, драма, мелодрама, военный, 1957) [DVDRip, ...
  • Зимородок (Вячеслав Никифоров, военный, 1972) [DVDRip, Не требуется]
  • Девушка без адреса (Эльдар Рязанов, мелодрама, комедия, 1957) [DVDRip, Не т ...
  • Два гусара (Вячеслав Криштофович, мелодрама, 1984) [DVDRip, Не требуется]
  • Сапоги (Владимир Немоляев, короткометражка, драма, комедия, 1957) [DVDRip, ...
  • Далеко от Москвы (Александр Столпер, драма, 1950) [DVDRip, Не требуется]
  • Завтрак на траве (Николай Александрович, детский, комедия, 1979) [DVDRip, Н ...
  • Разные судьбы (Леонид Луков, мелодрама, 1957) [DVDRip, Не требуется]
  • Рядом с нами (Адольф Бергункер, драма, 1957) [DVDRip, Не требуется]
  • Повесть о настоящем человеке (Александр Столпер, драма, военный, 1948) [DVD ...
  • Чудный характер (Константин Воинов, драма, 1970) [DVDRip, Не требуется]
  • Печники (Виктор Храмов, драма, 1982) [DVDRip, Не требуется]
  • Тихий Дон (3 части из 3) (Сергей Герасимов, драма, военный, 1957) [DVDRip, ...
  • Полустанок (Борис Барнет, мелодрама, комедия, 1963) [DVDRip, Не требуется]
  • Высота (Александр Зархи,1957 г., мелодрама)[DVDRip](реставрированный)
  • К Черному морю (Андрей Тутышкин, мелодрама, комедия, 1957) [DVDRip, Не треб ...
  • Информация
    Посетители, находящиеся в группе Гости, не могут оставлять комментарии к данной публикации.