вход на сайт

Имя пользователя :
Пароль :

Восстановление пароля Регистрация
Выйти замуж за капитана (Виталий Мельников, мелодрама, комедия, 1985) [DVDRip, Не требуется]
Рейтинг:
(голосов: 1)



[img]{THEME}/images/logopost.png[/img]



Выйти замуж за капитана

Год выпуска: 1985
Страна: СССР
Производство: Ленфильм
Жанр: мелодрама, комедия

Режиссёр: Виталий Мельников
В ролях: Вера Глаголева, Виктор Проскурин, Вера Васильева, Николай Рыбников, Юрий Демич, Светлана Крючкова, Федор Одиноков, Татьяна Рудина, Валентина Березуцкая, Валерий Кузин

Перевод: Не требуется
Субтитры: Отсутствуют

Описание:
Эмансипированная молодая женщина живет, ни от кого не завися, и все свои проблемы — на работе и дома — решает самостоятельно. Но вот однажды случай сводит ее с капитаном-пограничником — и Лена вдруг понимает, как это замечательно — чувствовать себя защищенной, слабой и любимой…


Дополнительно:
MediaInfo ▼Text
Общее
Полное имя :J:Выйти замуж за капитанаVyyti zamuzh za kapitana.avi
Формат :AVI
Размер :700 MiB
Продолжительность :01:25:03.560
Общий поток :1 151 Kbps
Программа кодирования :VirtualDubModRus 1.5.10.2 (build 2542/release)
Библиотека кодирования :VirtualDubMod build 2542/release

Видео
Идентификатор :0
Формат :MPEG-4 Visual
Параметр BVOP формата :1
Параметр Qpel формата :No
Параметр GMC формата :0
Параметр Matrix формата :Default (H.263)
Идентификатор кодека :DX50
Продолжительность :1h 25mn 3s 560ms
Битрейт :1 013 Kbps
Ширина :640 pixels
Высота :480 pixels
Соотношение сторон :1.333
Частота кадров :25.000 fps
Глубина цвета :8 bits
Подвыборка цветности :4:2:0
Цветовое пространство :YUV
Тип развертки :Progressive
Бит/(Пиксели*Кадры) :0.132
Размер потока :617 MiB (88%)
Библиотека кодирования :DivX503b2676p

Аудио #1
Идентификатор :1
Формат :MPEG Audio
Идентификатор кодека :55
Продолжительность :01:25:03.552
Вид битрейта :Constant
Битрейт :128 Kbps
Канал(ы) :2 channels
Частота :48.0 KHz
Метод сжатия :Lossy
Размер потока :77.9 MiB (11%)



Тех. данные:
Качество:DVDRip
Продолжительность:01:25:00 час

Формат: AVI
Видео кодек: DivX
Аудио кодек: MPA1L3
Видео: 640 x 480 (4:3), 25.000 fps, 1 013 Kbps, 0.132 bit/pixel
Аудио :
93c936f58243b1daa8cb3b456efd3e6aeb7607adВыйти замуж за капитана (Виталий Мельников, мелодрама, комедия, 1985) [DVDRip, Не требуется] Выйти замуж за капитана (Виталий Мельников, мелодрама, комедия, 1985) [DVDRip, Не требуется] " />

Аплоадер: Админ, дата: 13-04-2013, 17:19, торрент скачан: 359 раз

Понравилась раздача? Посмотрите эти:
  • Как выйти замуж за миллионера // Эпизоды с 1 по 4 (из 4) (Комедия, Мелодрам ...
  • Не ходите, девки, замуж (Евгений Герасимов, мюзикл, комедия, 1985) [DVDRip, ...
  • Начало (Глеб Панфилов, мелодрама, комедия, 1970) [DVDRip, Не требуется]
  • Медовый месяц (Надежда Кошеверова, мелодрама, комедия, 1956) [DVDRip, Не тр ...
  • Девушка без адреса (Эльдар Рязанов, мелодрама, комедия, 1957) [DVDRip, Не т ...
  • Чужая жена и муж под кроватью (Виталий Мельников, драма, 1984) [DVDRip, Не ...
  • Старший сын (2 части из 2) (Виталий Мельников, драма, 1975) [DVDRip, Не тре ...
  • Всё наоборот (Виталий Фетисов, Владимир Грамматиков, мелодрама, комедия, 19 ...
  • Воскресный папа (Наум Бирман, драма, семейный, 1985) [DVDRip, Не требуется] ...
  • Ослиная шкура (Надежда Кошеверова, фэнтези, мелодрама, комедия, семейный, 1 ...
  • Опасно для жизни! (Леонид Гайдай, комедия, 1985) [DVDRip, Не требуется]
  • Начальник Чукотки (Виталий Мельников, драма, комедия, приключения, история, ...
  • Сватовство гусара (Светлана Дружинина, мюзикл, мелодрама, комедия, 1979) [D ...
  • Царская охота (2 части из 2) (Виталий Мельников, драма, история, 1990) [DVD ...
  • Слушать в отсеках (2 части из 2) (Николай Засеев-Руденко, приключения, 1985 ...
  • Я вас любил... (Илья Фрэз, мелодрама, комедия, 1967) [DVDRip, Не требуется] ...
  • Уходя - уходи (Виктор Трегубович, комедия, 1978) [DVDRip, Не требуется]
  • Ханума (2 части из 2) (Георгий Товстоногов, мюзикл, комедия, 1978) [DVDRip, ...
  • Старомодная комедия (Эра Савельева, Татьяна Березанцева, мелодрама, 1978) [ ...
  • Как выйти замуж за миллионера / How to Marry a Millionaire (Жан Негулеско, ...
  • Информация
    Посетители, находящиеся в группе Гости, не могут оставлять комментарии к данной публикации.