вход на сайт

Имя пользователя :
Пароль :

Восстановление пароля Регистрация
Вы чье, старичье? (Иосиф Хейфиц, драма, 1988) [DVDRip, Не требуется]
Рейтинг:
(голосов: 1)



[img]{THEME}/images/logopost.png[/img]



Вы чье, старичье?

Год выпуска: 1988
Страна: СССР
Производство: Ленфильм
Жанр: драма

Режиссёр: Иосиф Хейфиц
В ролях: Михаил Пахоменко, Лев Борисов, Елена Мельникова, Евгений Крыжановский, Татьяна Шаркова, Евгения Ковалева, Ирина Ракшина, Анатолий Котенёв, Александрс Петуховс, Андрей Филиппов

Перевод: Не требуется
Субтитры: Отсутствуют

Описание:
По одноименной повести Бориса Васильева. Трогательный рассказ о двух стариках, в одиночестве доживающих свои дни в богом забытой деревеньке.


Дополнительно:
MediaInfo ▼Text
Общее
Полное имя :K:Вы чье, старичьеViy ch`e starich`e.DVDRip.avi
Формат :AVI
Размер :745 MiB
Продолжительность :01:33:42.720
Общий поток :1 112 Kbps
Программа кодирования :VirtualDubModRus 1.5.10.2 (build 2542/release)
Библиотека кодирования :VirtualDubMod build 2542/release

Видео
Идентификатор :0
Формат :MPEG-4 Visual
Параметр BVOP формата :1
Параметр Qpel формата :No
Параметр GMC формата :0
Параметр Matrix формата :Default (H.263)
Идентификатор кодека :DX50
Продолжительность :1h 33mn 42s 720ms
Битрейт :975 Kbps
Ширина :640 pixels
Высота :480 pixels
Соотношение сторон :1.333
Частота кадров :25.000 fps
Глубина цвета :8 bits
Подвыборка цветности :4:2:0
Цветовое пространство :YUV
Тип развертки :Progressive
Бит/(Пиксели*Кадры) :0.127
Размер потока :653 MiB (88%)
Библиотека кодирования :DivX503b2676p

Аудио #1
Идентификатор :1
Формат :MPEG Audio
Идентификатор кодека :55
Продолжительность :01:33:42.288
Вид битрейта :Constant
Битрейт :128 Kbps
Канал(ы) :2 channels
Частота :48.0 KHz
Метод сжатия :Lossy
Размер потока :85.8 MiB (12%)



Тех. данные:
Качество:DVDRip
Продолжительность:01:33:40 час

Формат: AVI
Видео кодек: DivX
Аудио кодек: MPA1L3
Видео: 640 x 480 (4:3), 25.000 fps, 975 Kbps, 0.127 bit/pixel
Аудио : 48.0 KHz, , 2 channels (), 128 Kbps



20f81234f24272746bb45ca9fee6b41ba4383755Вы чье, старичье? (Иосиф Хейфиц, драма, 1988) [DVDRip, Не требуется] Вы чье, старичье? (Иосиф Хейфиц, драма, 1988) [DVDRip, Не требуется] " />

Аплоадер: Админ, дата: 13-04-2013, 17:16, торрент скачан: 359 раз

Понравилась раздача? Посмотрите эти:
  • На подмостках сцены (Константин Юдин, драма, комедия, 1956) [DVDRip, Не тре ...
  • Дни хирурга Мишкина (3 части из 3) (Вадим Зобин, драма, 1967) [DVDRip, Не т ...
  • Будни и праздники Серафимы Глюкиной (2 части из 2) (Ростислав Горяев, драма ...
  • Абориген (Елена Николаева, драма, 1988) [DVDRip, Не требуется]
  • Защитник Седов (Евгений Цымбал, драма, 1988) [DVDRip, Не требуется]
  • Дорогой мой человек (Иосиф Хейфиц, драма, мелодрама, 1959) [DVDRip, Не треб ...
  • Дело Румянцева (Иосиф Хейфиц, драма, криминал, детектив, 1955) [DVDRip, Не ...
  • Дама с собачкой (Иосиф Хейфиц, драма, мелодрама, 1959) [DVDRip, Не требуетс ...
  • Эзоп (Олег Рябоконь, драма, история, 1981) [DVDRip, Не требуется]
  • Четвертый (Александр Столпер, драма, 1972) [DVDRip, Не требуется]
  • Плохой хороший человек (Иосиф Хейфиц, драма, история, 1973) [DVDRip, Не тре ...
  • Егерь (Герман Ливанов, драма, экранизация, 1960) [DVDRip, Не требуется]
  • Лес (Владимир Мотыль, драма, 1980) [DVDRip, Не требуется]
  • Капитанская дочка (Владимир Каплуновский, драма, 1958) [DVDRip, Не требуетс ...
  • Какие наши годы! (Эльёр Ишмухамедов, драма, 1980) [DVDRip, Не требуется]
  • Чайка (Юлий Карасик, драма, 1972) [DVDRip, Не требуется]
  • Степь (2 части из 2) (Сергей Бондарчук, драма, история, 1977) [DVDRip, Не т ...
  • Вы чье, старичье? (Иосиф Хейфиц, драма, 1988) [DVDRip, оригинал]
  • Воскресенье, половина седьмого (4 части из 4) (Вадим Зобин, криминал, детек ...
  • К Черному морю (Андрей Тутышкин, мелодрама, комедия, 1957) [DVDRip, Не треб ...
  • Информация
    Посетители, находящиеся в группе Гости, не могут оставлять комментарии к данной публикации.