вход на сайт

Имя пользователя :
Пароль :

Восстановление пароля Регистрация
Всадник без головы (Владимир Вайншток, мелодрама, приключения, вестерн, 1973) [DVDRip, Профессиональный (полное дублирование)]
Рейтинг:
(голосов: 1)



[img]{THEME}/images/logopost.png[/img]



Всадник без головы

Год выпуска: 1973
Страна: СССР , Куба
Производство: Ленфильм
Жанр: мелодрама, приключения, вестерн

Режиссёр: Владимир Вайншток
В ролях: Людмила Савельева, Олег Видов, Алехандро Луго, Эслинда Нуньес, Александр Милокостый, Иван Петров, Аарне Юкскюла, В. Беловоцкий, В. Ионтов, Е. Харкевич

Перевод: Профессиональный (полное дублирование)
Субтитры: Отсутствуют

Описание:
В середине XIX века, после кровопролитной войны с Мексикой, американцы начали покорение огромной территории Техаса. У нового владельца гасиенды Каса-дель-Корво дела идут далеко не блестяще. К тому же происходит страшное событие: бесследно исчезает его сын.

Подозрение в убийстве падает на молодого мустангера Мориса Джеральда, в которого влюблена дочь хозяина. Когда кажется, что казнь неминуема, внезапно появляется главный свидетель преступления…


Дополнительно:
MediaInfo ▼Text
Общее
Полное имя :L:Всадник без головыВсадник без головы.avi
Формат :AVI
Размер :745 MiB
Продолжительность :01:34:35.720
Общий поток :1 101 Kbps
Программа кодирования :VirtualDubModRus 1.5.10.2 (build 2542/release)
Библиотека кодирования :VirtualDubMod build 2542/release

Видео
Идентификатор :0
Формат :MPEG-4 Visual
Параметр BVOP формата :1
Параметр Qpel формата :No
Параметр GMC формата :0
Параметр Matrix формата :Default (H.263)
Идентификатор кодека :DX50
Продолжительность :1h 34mn 35s 720ms
Битрейт :963 Kbps
Ширина :672 pixels
Высота :288 pixels
Соотношение сторон :2.333
Частота кадров :25.000 fps
Глубина цвета :8 bits
Подвыборка цветности :4:2:0
Цветовое пространство :YUV
Тип развертки :Progressive
Бит/(Пиксели*Кадры) :0.199
Размер потока :652 MiB (87%)
Библиотека кодирования :DivX503b2676p

Аудио #1
Идентификатор :1
Формат :MPEG Audio
Идентификатор кодека :55
Продолжительность :01:34:35.712
Вид битрейта :Constant
Битрейт :128 Kbps
Канал(ы) :2 channels
Частота :48.0 KHz
Метод сжатия :Lossy
Размер потока :86.6 MiB (12%)



Тех. дан
9abab7ec038ea88b5d9164389c94d9a63fa74905Всадник без головы (Владимир Вайншток, мелодрама, приключения, вестерн, 1973) [DVDRip, Профессиональный (полное дублирование)] Всадник без головы (Владимир Вайншток, мелодрама, приключения, вестерн, 1973) [DVDRip, Профессиональный (полное дублирование)] " />

Аплоадер: Админ, дата: 13-04-2013, 17:10, торрент скачан: 359 раз

Понравилась раздача? Посмотрите эти:
  • Отпуск за свой счет (2 части из 2) (Виктор Титов, мелодрама, комедия, 1981) ...
  • Открытая книга (Владимир Фетин, драма, биография, 1973) [DVDRip, Не требуе ...
  • Кукарача (Кети Долидзе, Сико Долидзе, драма, 1982) [DVDRip, Профессиональны ...
  • Совсем пропащий (Георгий Данелия, приключения, 1973) [DVDRip, Не требуется] ...
  • Украденный поезд (Владимир Янчев, драма, 1971) [DVDRip, Профессиональный (п ...
  • Пакет (Владимир Назаров, комедия, приключения, семейный, 1965) [DVDRip, Не ...
  • Всадник на золотом коне (Василий Журавлев, фэнтези, 1980) [DVDRip, Не требу ...
  • Жизнь и необычайные приключения солдата Ивана Чонкина (Иржи Менцель, мелодр ...
  • На графских развалинах (Владимир Скуйбин, приключения, семейный, 1957) [DVD ...
  • Лимонадный Джо / Limonadovy Joe aneb Konska opera (Ольдржих Липский, мюзикл ...
  • Пропавшая грамота (Борис Ивченко, фэнтези, комедия, 1972) [DVDRip, Професси ...
  • Адъютант его превосходительства (5 частей из 5) (Евгений Ташков, мелодрама, ...
  • Старомодная комедия (Эра Савельева, Татьяна Березанцева, мелодрама, 1978) [ ...
  • 31 июня (2 части из 2) (Леонид Квинихидзе, мюзикл, фэнтези, мелодрама, 1978 ...
  • Приключения маленького Мука (Елизавета Кимягарова, мюзикл, семейный, 1983) ...
  • Всадник без головы (Владимир Вайншток, мелодрама, приключения, вестерн, 197 ...
  • Как украсть миллион / How to steal a million (Уильям Уайлер, комедия, крими ...
  • Сокровище Серебряного озера / Der Schatz im Silbersee (Харальд Райнль, прик ...
  • Братья по крови / Blutsbruder (Вернер В. Валльрот, драма, вестерн, 1975) [D ...
  • Вера, надежда, любовь (Владимир Грамматиков, приключения, 1984) [DVDRip, Не ...
  • Информация
    Посетители, находящиеся в группе Гости, не могут оставлять комментарии к данной публикации.