вход на сайт

Имя пользователя :
Пароль :

Восстановление пароля Регистрация
Дама с собачкой (Иосиф Хейфиц, драма, мелодрама, 1959) [DVDRip, Не требуется]
Рейтинг:
(голосов: 1)



[img]{THEME}/images/logopost.png[/img]



Дама с собачкой

Год выпуска: 1959
Страна: СССР
Производство: Ленфильм
Жанр: драма, мелодрама

Режиссёр: Иосиф Хейфиц
В ролях: Ия Саввина, Алексей Баталов, Нина Алисова, Пантелеймон Крымов, Юрий Медведев, Владимир Эренберг, Яков Гудкин, Дмитрий Зебров, Мария Сафонова, Галина Барышева

Перевод: Не требуется
Субтитры: Отсутствуют

Описание:
По одноименному рассказу А. П. Чехова


Дополнительно:
MediaInfo ▼Text
Общее
Полное имя :K:Дама с собачкойDama s sobachkoj.avi
Формат :AVI
Размер :1.44 GiB
Продолжительность :01:24:21.720
Общий поток :2 451 Kbps
Программа кодирования :VirtualDubModRus 1.5.10.2 (build 2542/release)
Библиотека кодирования :VirtualDubMod build 2542/release

Видео
Идентификатор :0
Формат :MPEG-4 Visual
Профиль формата :Advanced [email protected]
Параметр BVOP формата :2
Параметр Qpel формата :No
Параметр GMC формата :0
Параметр Matrix формата :Default (H.263)
Идентификатор кодека :XVID
Продолжительность :1h 24mn 21s 720ms
Битрейт :1 993 Kbps
Ширина :720 pixels
Высота :544 pixels
Соотношение сторон :1.324
Частота кадров :25.000 fps
Глубина цвета :8 bits
Подвыборка цветности :4:2:0
Цветовое пространство :YUV
Тип развертки :Progressive
Бит/(Пиксели*Кадры) :0.204
Размер потока :1.17 GiB (81%)
Библиотека кодирования :XviD0050

Аудио #1
Идентификатор :1
Формат :AC-3
Формат/Информация :Audio Coding 3
Идентификатор кодека :2000
Продолжительность :01:24:21.696
Вид битрейта :Constant
Битрейт :448 Kbps
Канал(ы) :6 channels
Расположение каналов :Front: L C R, Side: L R, LFE
Частота :48.0 KHz
Битовая глубина :16 bits
Метод сжатия :Lossy
Размер потока :270 MiB (18%)



Тех. данные:
Качество:DVDRip
Продолжительность:01:24:20 час

Формат: AVI
Видео кодек: XviD
Аудио кодек: AC3
Видео: 720 x 544 (4:3),
6acc208cd6933e727014a486d2b398782ab82314Дама с собачкой (Иосиф Хейфиц, драма, мелодрама, 1959) [DVDRip, Не требуется] Дама с собачкой (Иосиф Хейфиц, драма, мелодрама, 1959) [DVDRip, Не требуется] " />

Аплоадер: Админ, дата: 12-04-2013, 20:07, торрент скачан: 359 раз

Понравилась раздача? Посмотрите эти:
  • Журавушка (Николай Москаленко, драма, мелодрама, 1968) [DVDRip, Не требуетс ...
  • О чем шумит река (Григорий Мелик-Авакян, драма, 1959) [DVDRip, Не требуется ...
  • Нейтральные воды (Владимир Беренштейн, драма, 1968) [DVDRip, Не требуется]
  • Дорогой мой человек (Иосиф Хейфиц, драма, мелодрама, 1959) [DVDRip, Не треб ...
  • Дело Румянцева (Иосиф Хейфиц, драма, криминал, детектив, 1955) [DVDRip, Не ...
  • Вы чье, старичье? (Иосиф Хейфиц, драма, 1988) [DVDRip, Не требуется]
  • Выстрел (Наум Трахтенберг, драма, 1966) [DVDRip, Не требуется]
  • Четвертый (Александр Столпер, драма, 1972) [DVDRip, Не требуется]
  • Последняя жертва (Петр Тодоровский, драма, мелодрама, 1975) [DVDRip, Не тре ...
  • Плохой хороший человек (Иосиф Хейфиц, драма, история, 1973) [DVDRip, Не тре ...
  • Ой, вы, гуси... (Лидия Боброва, Драма, 1991) [DVDRip, Не требуется]
  • Комиссар (Александр Аскольдов, драма, военный, 1967) [DVDRip, Не требуется] ...
  • Дама с собачкой (Иосиф Хейфиц, драма, 1960 год) [DVDRip, не требуется ]
  • Пиковая Дама (Роман Тихомиров, мюзикл, драма, 1961) [DVDRip, Не требуется]
  • Пиковая дама (Игорь Масленников, драма, 1982) [DVDRip, Не требуется]
  • Чайка (Юлий Карасик, драма, 1972) [DVDRip, Не требуется]
  • Старомодная комедия (Эра Савельева, Татьяна Березанцева, мелодрама, 1978) [ ...
  • Солдатка (Владимир Денисенко, драма, 1959) [DVDRip, Не требуется]
  • Судьба человека (Сергей Бондарчук, драма, военный, биография, 1959) [DVDRip ...
  • Дорогой мой человек (Иосиф Хейфиц, Мелодрама, драма, 1958 г) [DVDRip, Ориги ...
  • 01-99 (Амаси Мартиросян, короткометражка, комедия, 1959) [DVDRip, Не требуе ...
  • Зеленый фургон (Генрих Габай, боевик, приключения, 1959) [DVDRip, Не требуе ...
  • В добрый час! (Виктор Эйсымонт, драма, мелодрама, 1956) [DVDRip, Не требует ...
  • Мексиканец (Владимир Каплуновский, драма, 1955) [DVDRip, Не требуется]
  • За облаками – небо (Юрий Егоров, драма, 1973) [DVDRip, Не требуется]
  • Информация
    Посетители, находящиеся в группе Гости, не могут оставлять комментарии к данной публикации.