вход на сайт

Имя пользователя :
Пароль :

Восстановление пароля Регистрация
Два дня чудес (Лев Мирский, комедия, 1970) [DVDRip, Не требуется]
Рейтинг:
(голосов: 1)



[img]{THEME}/images/logopost.png[/img]



Два дня чудес

Год выпуска: 1970
Страна: СССР
Производство: Студия Горького
Жанр: комедия

Режиссёр: Лев Мирский
В ролях: Леонид Куравлёв, Борис Майхровский, Михаил Козаков, Ольга Аросева, Тамара Чернова, Наталья Маркина, Е. Мозговая, Эраст Гарин, Юрий Критенко, Людмила Стоянова

Перевод: Не требуется
Субтитры: Отсутствуют

Описание:
Устав от бесконечных претензий, отец и сын Мурашевы, чтобы лучше понять проблемы друг друга, решили поменяться своими обязанностями, воспользовавшись услугами двух молоденьких фей-студенток…


Дополнительно:
MediaInfo ▼Text
Общее
Полное имя :K:Два дня чудесDva dnja chudes.avi
Формат :AVI
Размер :935 MiB
Продолжительность :01:03:56.840
Общий поток :2 044 Kbps
Библиотека кодирования :VirtualDub build 27021/release

Видео
Идентификатор :0
Формат :MPEG-4 Visual
Параметр BVOP формата :1
Параметр Qpel формата :No
Параметр GMC формата :0
Параметр Matrix формата :Default (MPEG)
Идентификатор кодека :DX50
Продолжительность :1h 3mn 56s 840ms
Битрейт :1 650 Kbps
Ширина :720 pixels
Высота :368 pixels
Соотношение сторон :1.957
Частота кадров :25.000 fps
Глубина цвета :8 bits
Подвыборка цветности :4:2:0
Цветовое пространство :YUV
Тип развертки :Progressive
Бит/(Пиксели*Кадры) :0.249
Размер потока :755 MiB (81%)
Библиотека кодирования :DivX503b1307m

Аудио #1
Идентификатор :1
Формат :AC-3
Формат/Информация :Audio Coding 3
Идентификатор кодека :2000
Продолжительность :01:03:56.832
Вид битрейта :Constant
Битрейт :384 Kbps
Канал(ы) :2 channels
Расположение каналов :Front: L R
Частота :48.0 KHz
Битовая глубина :16 bits
Метод сжатия :Lossy
Размер потока :176 MiB (19%)



Тех. данные:
Качество:DVDRip
Продолжительность:01:03:50 час

Формат: AVI
Видео кодек: DivX
Аудио кодек: AC3
Видео: 720 x 368 (1.957), 25.000 fps, 1 650 Kbps, 0.249 bit/pixel
Аудио : 48.
648a774f25d37ff30ebde306d43cd09aa164b570Два дня чудес (Лев Мирский, комедия, 1970) [DVDRip, Не требуется] Два дня чудес (Лев Мирский, комедия, 1970) [DVDRip, Не требуется] " />

Аплоадер: Админ, дата: 12-04-2013, 20:01, торрент скачан: 359 раз

Понравилась раздача? Посмотрите эти:
  • Вас вызывает Таймыр (Алексей Коренев, комедия, 1970) [DVDRip, Не требуется] ...
  • Аленка (Борис Барнет, комедия, 1961) [DVDRip, Не требуется]
  • Начало (Глеб Панфилов, мелодрама, комедия, 1970) [DVDRip, Не требуется]
  • Меж высоких хлебов (Леонид Миллионщиков, комедия, 1970) [DVDRip, Не требует ...
  • Зеленые цепочки (Григорий Аронов, приключения, 1970) [DVDRip, Не требуется] ...
  • Тайна железной двери (Михаил Юзовский, фантастика, приключения, семейный, 1 ...
  • Тайна горного подземелья (Лев Мирский, детский, приключения, 1975) [DVDRip, ...
  • Волшебная сила (Наум Бирман, мюзикл, комедия, семейный, 1970) [DVDRip, Не т ...
  • Иван да Марья (Борис Рыцарев, фэнтези, мелодрама, комедия, семейный, музыка ...
  • Опекун (Эдгар Ходжикян, Альберт С. Мкртчян, комедия, 1970) [DVDRip, Не треб ...
  • Левша (Сергей Овчаров, драма, комедия, 1986) [DVDRip, Не требуется]
  • Комедия ошибок (2 части из 2) (Вадим Гаузнер, комедия, 1978) [DVDRip, Не тр ...
  • Мульт-Салют. 22 ч. из 30: Необыкновенный матч/Старые знакомые/Шайбу! Шайбу! ...
  • Чудный характер (Константин Воинов, драма, 1970) [DVDRip, Не требуется]
  • Карусель (Михаил Швейцер, комедия, 1970) [DVDRip, Не требуется]
  • Слуги Дьявола (Александр Лейманис, комедия, приключения, 1970) [DVDRip, Про ...
  • Шельменко-денщик (Андрей Тутышкин, мюзикл, комедия, 1971) [DVDRip, Не требу ...
  • Приключения желтого чемоданчика (Илья Фрэз, комедия, семейный, 1970) [DVDRi ...
  • Живите в радости (Леонид Миллионщиков, комедия, 1978) [DVDRip, Не требуется ...
  • Карьера Димы Горина (Фрунзе Довлатян, Лев Мирский, комедия, 1962) [DVDRip, ...
  • Информация
    Посетители, находящиеся в группе Гости, не могут оставлять комментарии к данной публикации.