вход на сайт

Имя пользователя :
Пароль :

Восстановление пароля Регистрация
Девушка без адреса (Эльдар Рязанов, мелодрама, комедия, 1957) [DVDRip, Не требуется]
Рейтинг:
(голосов: 1)



[img]{THEME}/images/logopost.png[/img]



Девушка без адреса

Год выпуска: 1957
Страна: СССР
Производство: Мосфильм
Жанр: мелодрама, комедия

Режиссёр: Эльдар Рязанов
В ролях: Светлана Карпинская, Николай Рыбников, Эраст Гарин, Василий Топорков, Юрий Белов, Светлана Тарасова, Зоя Фёдорова, Сергей Филиппов, Рина Зеленая, Михаил Гаркави

Перевод: Не требуется
Субтитры: Отсутствуют

Описание:
Забавные приключения молодого строителя Пашки Гусарова начались с того момента, как в поезде он встретил и полюбил Катю. Счастье делает человека беспечным, и на вокзале его ждет множество необычных событий. Однако именно здесь влюбленные встречаются вновь, и больше уже не расстаются.


Дополнительно:
MediaInfo ▼Text
Общее
Полное имя :J:Девушка без адресаDevuschka bez adresa.DVDRip.avi
Формат :AVI
Размер :744 MiB
Продолжительность :01:25:08.688
Общий поток :1 222 Kbps
Программа кодирования :VirtualDubModRus 1.5.10.2 (build 2542/release)
Библиотека кодирования :VirtualDubMod build 2542/release

Видео
Идентификатор :0
Формат :MPEG-4 Visual
Параметр BVOP формата :1
Параметр Qpel формата :No
Параметр GMC формата :0
Параметр Matrix формата :Default (H.263)
Идентификатор кодека :DX50
Продолжительность :1h 25mn 8s 680ms
Битрейт :1 085 Kbps
Ширина :640 pixels
Высота :480 pixels
Соотношение сторон :1.333
Частота кадров :25.000 fps
Глубина цвета :8 bits
Подвыборка цветности :4:2:0
Цветовое пространство :YUV
Тип развертки :Progressive
Бит/(Пиксели*Кадры) :0.141
Размер потока :660 MiB (89%)
Библиотека кодирования :DivX503b2676p

Аудио #1
Идентификатор :1
Формат :MPEG Audio
Идентификатор кодека :55
Продолжительность :01:25:08.688
Вид битрейта :Constant
Битрейт :128 Kbps
Канал(ы) :2 channels
Частота :48.0 KHz
Метод сжатия :Lossy
Размер потока :78.0 MiB (10%)



Тех. данные:
Качество:DVDRip
Продолжительность:01:25:08 час

Формат: AVI
Видео кодек: DivX
Аудио кодек: MPA1L3
Видео: 640 x 480 (4:3), 25.000 fps, 1 085 Kbps, 0.141 bit/
fc50dbc1f7f5393b9b2fad2cfdd871696ecda5f6Девушка без адреса (Эльдар Рязанов, мелодрама, комедия, 1957) [DVDRip, Не требуется] Девушка без адреса (Эльдар Рязанов, мелодрама, комедия, 1957) [DVDRip, Не требуется] " />

Аплоадер: Админ, дата: 12-04-2013, 19:52, торрент скачан: 359 раз

Понравилась раздача? Посмотрите эти:
  • Начало (Глеб Панфилов, мелодрама, комедия, 1970) [DVDRip, Не требуется]
  • Медовый месяц (Надежда Кошеверова, мелодрама, комедия, 1956) [DVDRip, Не тр ...
  • Летят журавли (Михаил Калатозов, драма, мелодрама, военный, 1957) [DVDRip, ...
  • Выйти замуж за капитана (Виталий Мельников, мелодрама, комедия, 1985) [DVDR ...
  • Высота (Александр Зархи, мелодрама, 1957) [DVDRip, Не требуется]
  • Сапоги (Владимир Немоляев, короткометражка, драма, комедия, 1957) [DVDRip, ...
  • Зигзаг удачи (Эльдар Рязанов, комедия, 1968) [DVDRip, Не требуется]
  • Гараж ( Эльдар Рязанов , Комедия, Драма, 1979) [DVDRip-AVC, не требуется]
  • Карнавальная ночь (Эльдар Рязанов, мюзикл, мелодрама, комедия, 1956) [DVDRi ...
  • Дайте жалобную книгу (Эльдар Рязанов, комедия, 1965) [DVDRip-AVC, Не требуе ...
  • Сватовство гусара (Светлана Дружинина, мюзикл, мелодрама, комедия, 1979) [D ...
  • Рядом с нами (Адольф Бергункер, драма, 1957) [DVDRip, Не требуется]
  • Служебный роман (Эльдар Рязанов, мелодрама, комедия, 1977) [BDRip 720p, не ...
  • Совершенно серьезно (Леонид Гайдай, Эльдар Рязанов, Владимир Семаков, коме ...
  • Старики-разбойники (Эльдар Рязанов, комедия, 1971) [DVDRip, Не требуется]
  • Стряпуха (Эдмонд Кеосаян, комедия, 1965) [DVDRip, Не требуется]
  • Старомодная комедия (Эра Савельева, Татьяна Березанцева, мелодрама, 1978) [ ...
  • Тихий Дон (3 части из 3) (Сергей Герасимов, драма, военный, 1957) [DVDRip, ...
  • Девушка без адреса (Эльдар Рязанов, мелодрама, комедия, 1967) [DVDRip, Не т ...
  • К Черному морю (Андрей Тутышкин, мелодрама, комедия, 1957) [DVDRip, Не треб ...
  • Информация
    Посетители, находящиеся в группе Гости, не могут оставлять комментарии к данной публикации.