вход на сайт

Имя пользователя :
Пароль :

Восстановление пароля Регистрация
Девушка джигит (Павел Боголюбов, комедия, 1955) [DVDRip, Не требуется]
Рейтинг:
(голосов: 1)



[img]{THEME}/images/logopost.png[/img]



Девушка джигит

Год выпуска: 1955
Страна: СССР
Производство: Студия Алма-Ата, Filmstudio Alma-Ata
Жанр: комедия

Режиссёр: Павел Боголюбов
В ролях: Лола Абдулкаримова, Кененбай Кожабеков, Мулюк Сартыбаев, Варвара Сошальская, Сабира Майканова, Константин Старостин, Мухтар Бахтыгереев, Сайфулла Тельгараев, Юрий Боголюбов, Игорь Боголюбов

Перевод: Не требуется
Субтитры: Отсутствуют

Описание:
Молодой колхозный коневод Айдар и старшая табунщица конезавода Галия давно любят друг друга. Случается так, что из-за недоразумения между молодыми людьми возникает размолвка. Это обстоятельство пытается использовать заведующий магазином Ангарбай, который не прочь стать женихом Галии.


Дополнительно:
MediaInfo ▼Text
Общее
Полное имя :L:Девушка-джигитdevushka dzhigit.avi
Формат :AVI
Размер :1.23 GiB
Продолжительность :01:31:00.840
Общий поток :1 937 Kbps
Программа кодирования :VirtualDubMod 1.5.10.2 (build 2540/release)
Библиотека кодирования :VirtualDubMod build 2540/release

Видео
Идентификатор :0
Формат :MPEG-4 Visual
Профиль формата :Advanced [email protected]
Параметр BVOP формата :2
Параметр Qpel формата :No
Параметр GMC формата :0
Параметр Matrix формата :Default (MPEG)
Идентификатор кодека :XVID
Продолжительность :1h 31mn 0s 840ms
Битрейт :1 800 Kbps
Ширина :688 pixels
Высота :512 pixels
Соотношение сторон :1.344
Частота кадров :25.000 fps
Глубина цвета :8 bits
Подвыборка цветности :4:2:0
Цветовое пространство :YUV
Тип развертки :Progressive
Бит/(Пиксели*Кадры) :0.204
Размер потока :1.14 GiB (93%)
Библиотека кодирования :XviD0046C

Аудио #1
Идентификатор :1
Формат :MPEG Audio
Идентификатор кодека :55
Продолжительность :01:31:00.840
Вид битрейта :Constant
Битрейт :128 Kbps
Канал(ы) :1 channel
Частота :48.0 KHz
Метод сжатия :Lossy
Размер потока :83.3 MiB (7%)



Тех. данные:
Качество:DVDRip
Продолжительность:01:31:00 час

Формат: AVI
Видео ко
960424ca1329331c85efc469c794750fd11a5075Девушка джигит (Павел Боголюбов, комедия, 1955) [DVDRip, Не требуется] Девушка джигит (Павел Боголюбов, комедия, 1955) [DVDRip, Не требуется] " />

Аплоадер: Админ, дата: 12-04-2013, 19:49, торрент скачан: 359 раз

Понравилась раздача? Посмотрите эти:
  • Вас вызывает Таймыр (Алексей Коренев, комедия, 1970) [DVDRip, Не требуется] ...
  • Аленка (Борис Барнет, комедия, 1961) [DVDRip, Не требуется]
  • С любимыми не расставайтесь (Павел Арсенов, драма, мелодрама, 1979) [DVDRip ...
  • Девушка без адреса (Эльдар Рязанов, мелодрама, комедия, 1957) [DVDRip, Не т ...
  • Ход конем (Татьяна Лукашевич, комедия, 1962) [DVDRip, Не требуется]
  • Попрыгунья (Самсон Самсонов, драма, 1955) [DVDRip, Не требуется]
  • Завтрак на траве (Николай Александрович, детский, комедия, 1979) [DVDRip, Н ...
  • Неподсуден (Владимир Краснопольский, Валерий Усков, драма, 1969) [DVDRip, Н ...
  • Капитанская дочка (Владимир Каплуновский, драма, 1958) [DVDRip, Не требуетс ...
  • Улица полна неожиданностей (Сергей Сиделев, комедия, 1957) [DVDRip, Перевод ...
  • Славный малый (Борис Барнет, военный, 1943) [DVDRip, Не требуется]
  • Шельменко-денщик (Андрей Тутышкин, мюзикл, комедия, 1971) [DVDRip, Не требу ...
  • Я вас любил... (Илья Фрэз, мелодрама, комедия, 1967) [DVDRip, Не требуется] ...
  • Свадьба (Павел Лунгин, Драма, комедия, 2000) [DVDRip, Не требуется]
  • При исполнении служебных обязанностей (Илья Гурин, фантастика, драма, 1963) ...
  • Король-олень (Павел Арсенов, мюзикл, фэнтези, комедия, семейный, 1969) [DVD ...
  • Девушка-джигит (Павел Боголюбов, Комедия, 1955 г) [SATRip, оригинал]
  • Улыбки летней ночи / Sommarnattens leende (Ингмар Бергман, мелодрама, комед ...
  • Запасной игрок (Семен Тимошенко, комедия, спорт, 1955) [DVDRip, Не требуетс ...
  • Шведская спичка (Константин Юдин, комедия, детектив, 1955) [DVDRip, Не треб ...
  • Голубая стрела (Леонид Эстрин, боевик, 1958) [DVDRip, Не требуется]
  • Два капитана (Владимир Венгеров, приключения, 1955) [ТVRip, Не требуется]
  • Максим Перепелица (Анатолий Граник, комедия, 1955) [DVDRip, Не требуется]
  • Мексиканец (Владимир Каплуновский, драма, 1955) [DVDRip, Не требуется]
  • Сердца четырех (Константин Юдин, мелодрама, комедия, 1941) [DVDRip, Не треб ...
  • Информация
    Посетители, находящиеся в группе Гости, не могут оставлять комментарии к данной публикации.