вход на сайт

Имя пользователя :
Пароль :

Восстановление пароля Регистрация
Дело №306 (Анатолий Рыбаков, криминал, детектив, 1956) [DVDRip, Не требуется]
Рейтинг:
(голосов: 1)



[img]{THEME}/images/logopost.png[/img]



Дело №306

Год выпуска: 1956
Страна: СССР
Производство: Мосфильм
Жанр: криминал, детектив

Режиссёр: Анатолий Рыбаков
В ролях: Борис Битюков, Марк Бернес, Татьяна Пилецкая, Константин Нассонов, Ада Войцик, Максим Штраух, Людмила Шагалова, Валентина Токарская, Евгений Весник, Николай Хощанов

Перевод: Не требуется
Субтитры: Отсутствуют

Описание:
На одной из московских улиц произошло дорожно-транспортное происшествие: сбита пожилая женщина, а затем и постовой милиционер, пытавшийся задержать машину. Женщина без сознания, документов у неё не обнаружено, а постовой милиционер скончался.

Но есть случайный свидетель — молодая хозяйка дорого автомобиля. И она может помочь — если поймет, как важны её показания: ведь в ходе следствия неожиданно выясняется, что в этой, казалось бы, обычной аварии замешаны агенты иностранной разведки.


Дополнительно:
MediaInfo ▼Text
Общее
Полное имя :K:Дело № 306Дело №306.avi
Формат :AVI
Размер :690 MiB
Продолжительность :01:16:41.760
Общий поток :1 258 Kbps
Программа кодирования :VirtualDubMod 1.5.4.1 (build 2178/release)VirtualDubMod build 2178/release

Видео
Идентификатор :0
Формат :MPEG-4 Visual
Параметр BVOP формата :1
Параметр Qpel формата :No
Параметр GMC формата :0
Параметр Matrix формата :Default (H.263)
Идентификатор кодека :DX50
Продолжительность :1h 16mn 41s 760ms
Битрейт :1 123 Kbps
Ширина :640 pixels
Высота :480 pixels
Соотношение сторон :1.333
Частота кадров :25.000 fps
Глубина цвета :8 bits
Подвыборка цветности :4:2:0
Цветовое пространство :YUV
Тип развертки :Progressive
Бит/(Пиксели*Кадры) :0.146
Размер потока :616 MiB (89%)
Библиотека кодирования :DivX503b2432p

Аудио #1
Идентификатор :1
Формат :MPEG Audio
Идентификатор кодека :55
Продолжительность :01:16:37.800
Вид битрейта :Constant
Битрейт :128 Kbps
Канал(ы) :2 channels
Частота :48.0 KHz
Метод сжатия :Lossy
Размер потока :70.2 MiB (10%)
Язык :5 / @5 / Russian
f6bed428f355a00493807850333eef624d1eef75Дело №306 (Анатолий Рыбаков, криминал, детектив, 1956) [DVDRip, Не требуется] Дело №306 (Анатолий Рыбаков, криминал, детектив, 1956) [DVDRip, Не требуется] " />

Аплоадер: Админ, дата: 12-04-2013, 19:41, торрент скачан: 359 раз

Понравилась раздача? Посмотрите эти:
  • Дружок (Виктор Эйсымонт, семейный, 1958) [DVDRip, Не требуется]
  • На подмостках сцены (Константин Юдин, драма, комедия, 1956) [DVDRip, Не тре ...
  • Медовый месяц (Надежда Кошеверова, мелодрама, комедия, 1956) [DVDRip, Не тр ...
  • Дело Румянцева (Иосиф Хейфиц, драма, криминал, детектив, 1955) [DVDRip, Не ...
  • Хозяин тайги (Владимир Назаров, криминал, 1968) [DVDRip, Не требуется]
  • Убийство на улице Данте (Михаил Ромм, драма, 1956) [DVDRip, Не требуется]
  • Старшина (Николай Кошелев, драма, 1979) [DVDRip, Не требуется]
  • Двенадцать месяцев (2 части из 2) (Анатолий Граник, фэнтези, семейный, 1972 ...
  • Деревенский детектив (Иван Лукинский, комедия, криминал, 1968) [DVDRip, Не ...
  • Левша (Сергей Овчаров, драма, комедия, 1986) [DVDRip, Не требуется]
  • Князь Удача Андреевич (Геннадий Байсак, комедия, криминал, семейный, 1989) ...
  • Черная чайка (Григорий Колтунов, приключения, 1962) [DVDRip, Не требуется]
  • Противостояние (6 частей из 6) (Семен Аранович, драма, криминал, детектив, ...
  • Трактир на Пятницкой (Александр Файнциммер, криминал, детектив, 1977) [DVDR ...
  • Дача (Константин Воинов, комедия, 1974) [DVDRip, Не требуется]
  • Карусель (Михаил Швейцер, комедия, 1970) [DVDRip, Не требуется]
  • Судьба барабанщика (Виктор Эйсымонт, драма, приключения, 1956) [DVDRip, Не ...
  • Славный малый (Борис Барнет, военный, 1943) [DVDRip, Не требуется]
  • Подпольный обком действует (4 части из 4) (Анатолий Буковский, военный, 197 ...
  • Свидетель обвинения / Witness for the Prosecution (Билли Уайлдер, триллер, ...
  • Хозяйка гостиницы (Михаил Названов, комедия, 1956) [DVDRip, Не требуется]
  • Драгоценный подарок (Александр Роу, семейный, 1956) [DVDRip, Не требуется]
  • Гений (2 части из 2) (Виктор Сергеев, Комедия, криминал, 1991) [DVDRip, Не ...
  • В добрый час! (Виктор Эйсымонт, драма, мелодрама, 1956) [DVDRip, Не требует ...
  • Воскресенье, половина седьмого (4 части из 4) (Вадим Зобин, криминал, детек ...
  • Информация
    Посетители, находящиеся в группе Гости, не могут оставлять комментарии к данной публикации.