вход на сайт

Имя пользователя :
Пароль :

Восстановление пароля Регистрация
Дикая собака Динго (Юлий Карасик, драма, 1962) [DVDRip, Не требуется]
Рейтинг:
(голосов: 1)



[img]{THEME}/images/logopost.png[/img]



Дикая собака Динго

Год выпуска: 1962
Страна: СССР
Производство: Ленфильм
Жанр: драма

Режиссёр: Юлий Карасик
В ролях: Галина Польских, Владимир Особик, Талас Умурзаков, Аня Родионова, Инна Кондратьева, Николай Тимофеев, Тамара Логинова, Ирина Радченко, Антонина Павлычева, В. Кожевников

Перевод: Не требуется
Субтитры: Отсутствуют

Описание:
Рассказ о мире юности, где водится Дикая собака Динго и цветет волшебный Цветок Саранка. В город, в котором живет с мамой Таня Сабанеева, приезжает ее отец с новой женой и приемным сыном Колей. Встретившись, молодые люди переживают свою первую, светлую и чистую, но и горькую любовь.


Дополнительно:
MediaInfo ▼Text
Общее
Полное имя :K:Дикая собака ДингоDikaja sobaka Dingo.DVDRip.avi
Формат :AVI
Размер :1.37 GiB
Продолжительность :01:32:49.920
Общий поток :2 108 Kbps
Программа кодирования :VirtualDubModRus 1.5.10.2 (build 2542/release)
Библиотека кодирования :VirtualDubMod build 2542/release

Видео
Идентификатор :0
Формат :MPEG-4 Visual
Параметр BVOP формата :1
Параметр Qpel формата :No
Параметр GMC формата :0
Параметр Matrix формата :Default (H.263)
Идентификатор кодека :DX50
Продолжительность :1h 32mn 49s 920ms
Битрейт :1 906 Kbps
Ширина :688 pixels
Высота :512 pixels
Соотношение сторон :1.344
Частота кадров :25.000 fps
Глубина цвета :8 bits
Подвыборка цветности :4:2:0
Цветовое пространство :YUV
Тип развертки :Progressive
Бит/(Пиксели*Кадры) :0.216
Размер потока :1.24 GiB (90%)
Библиотека кодирования :DivX503b2676p

Аудио #1
Идентификатор :1
Формат :AC-3
Формат/Информация :Audio Coding 3
Идентификатор кодека :2000
Продолжительность :01:32:49.920
Вид битрейта :Constant
Битрейт :192 Kbps
Канал(ы) :2 channels
Расположение каналов :Front: L R
Частота :48.0 KHz
Битовая глубина :16 bits
Метод сжатия :Lossy
Размер потока :127 MiB (9%)



Тех. данные:
Качество:DVDRip
9a407b9bc8710d455a2efaba9c7b5b04e56ed9b2Дикая собака Динго (Юлий Карасик, драма, 1962) [DVDRip, Не требуется] Дикая собака Динго (Юлий Карасик, драма, 1962) [DVDRip, Не требуется] " />

Аплоадер: Админ, дата: 11-04-2013, 17:46, торрент скачан: 359 раз

Понравилась раздача? Посмотрите эти:
  • Нейтральные воды (Владимир Беренштейн, драма, 1968) [DVDRip, Не требуется]
  • Дама с собачкой (Иосиф Хейфиц, драма, мелодрама, 1959) [DVDRip, Не требуетс ...
  • Поезд идёт на восток (Цветной) (Юлий Райзман, мелодрама, комедия, 1947) [DV ...
  • Воскресный папа (Наум Бирман, драма, семейный, 1985) [DVDRip, Не требуется] ...
  • Мистер Икс (Юлий Хмельницкий, мюзикл, мелодрама, комедия, 1958) [DVDRip, Не ...
  • Печёнка (Арман Манарян, короткометражка, комедия, 1962) [DVDRip, Не требует ...
  • Порожний рейс (Владимир Венгеров, драма, 1962) [DVDRip, Не требуется]
  • Чайка (Юлий Карасик, драма, 1972) [DVDRip, Не требуется]
  • Семь нянек (Ролан Быков, комедия, 1962) [DVDRip, Не требуется]
  • Собака на сене (Реставрирован) (Ян Фрид, мюзикл, комедия, 1977) [DVDRip, Не ...
  • Стакан воды (Юлий Карасик, мелодрама, комедия, история, 1979) [DVDRip, Не т ...
  • Шла собака по роялю (Владимир Грамматиков, мелодрама, 1978) [DVDRip, Не тре ...
  • Деловые люди (полная реставрация) (Леонид Гайдай, комедия, драма, 1962) [DV ...
  • Взрослые дети (Виллен Азаров, драма, комедия, 1962) [DVDRip, Не требуется] ...
  • Чудак-человек (Владимир Кочетов, комедия, 1962) [DVDRip, Не требуется]
  • Пограничный пес Алый (Юлий Файт, драма, 1979) [DVDRip, Не требуется]
  • В добрый час! (Виктор Эйсымонт, драма, мелодрама, 1956) [DVDRip, Не требует ...
  • Мексиканец (Владимир Каплуновский, драма, 1955) [DVDRip, Не требуется]
  • Автомобиль, скрипка и собака Клякса (Ролан Быков, мюзикл, семейный, 1974) [ ...
  • Карьера Димы Горина (Фрунзе Довлатян, Лев Мирский, комедия, 1962) [DVDRip, ...
  • Информация
    Посетители, находящиеся в группе Гости, не могут оставлять комментарии к данной публикации.