вход на сайт

Имя пользователя :
Пароль :

Восстановление пароля Регистрация
Дневной поезд (Инесса Селезнева, драма, 1976) [DVDRip, Не требуется]
Рейтинг:
(голосов: 1)



[img]{THEME}/images/logopost.png[/img]



Дневной поезд

Год выпуска: 1976
Страна: СССР
Производство: ТО Экран
Жанр: драма

Режиссёр: Инесса Селезнева
В ролях: Маргарита Терехова, Валентин Гафт, Римма Быкова, Татьяна Лаврова, Светлана Немоляева, Алла Покровская, Виктор Борцов, Галина Инютина, Татьяна Бестаева, Елена Санько

Перевод: Не требуется
Субтитры: Отсутствуют

Описание:
В Москве и Ленинграде живут старые подруги и мечтают о том, чтобы их дети поженились. Но детям уже за сорок, их трудности очевидны и вполне понятны.


Дополнительно:
MediaInfo ▼Text
Общее
Полное имя :J:Дневной поездDnevnoy poezhd.avi
Формат :AVI
Размер :1.36 GiB
Продолжительность :01:33:57.120
Общий поток :2 079 Kbps
Программа кодирования :VirtualDubMod 1.5.10.2 (build 2540/release)
Библиотека кодирования :VirtualDubMod build 2540/release

Видео
Идентификатор :0
Формат :MPEG-4 Visual
Профиль формата :Advanced [email protected]
Параметр BVOP формата :1
Параметр Qpel формата :No
Параметр GMC формата :0
Параметр Matrix формата :Custom
Идентификатор кодека :XVID
Продолжительность :1h 33mn 57s 120ms
Битрейт :1 877 Kbps
Ширина :704 pixels
Высота :528 pixels
Соотношение сторон :1.333
Частота кадров :25.000 fps
Глубина цвета :8 bits
Подвыборка цветности :4:2:0
Цветовое пространство :YUV
Тип развертки :Progressive
Бит/(Пиксели*Кадры) :0.202
Размер потока :1.23 GiB (90%)
Библиотека кодирования :XviD0050

Аудио #1
Идентификатор :1
Формат :MPEG Audio
Идентификатор кодека :55
Продолжительность :01:33:56.880
Вид битрейта :Constant
Битрейт :192 Kbps
Канал(ы) :2 channels
Частота :48.0 KHz
Метод сжатия :Lossy
Размер потока :129 MiB (9%)



Тех. данные:
Качество:DVDRip
Продолжительность:01:33:50 час

Формат: AVI
Видео кодек: XviD
Аудио кодек: MPA1L3
Видео: 704 x 528 (4:3), 25.000 fps, 1 877 Kbps, 0.202 bit/pixel
Аудио : 48.0 KHz, , 2 channels (), 192 Kbps



6ef60b4ad5b69126fda2d07f37e74e02f4e70247Дневной поезд (Инесса Селезнева, драма, 1976) [DVDRip, Не требуется] Дневной поезд (Инесса Селезнева, драма, 1976) [DVDRip, Не требуется] " />

Аплоадер: Админ, дата: 11-04-2013, 17:44, торрент скачан: 359 раз

Понравилась раздача? Посмотрите эти:
  • Василий и Василиса (Ирина Поплавская, драма, мелодрама, биография, 1981) [D ...
  • Подранки (Николай Губенко, драма, 1976) [DVDRip, Не требуется]
  • Бой под Соколом (Александр Разумный, военный, 1942) [DVDRip, Не требуется]
  • Защитник Седов (Евгений Цымбал, драма, 1988) [DVDRip, Не требуется]
  • Вы чье, старичье? (Иосиф Хейфиц, драма, 1988) [DVDRip, Не требуется]
  • Человек идёт за солнцем (Михаил Калик, драма, 1961) [DVDRip, Не требуется]
  • Ход конем (Татьяна Лукашевич, комедия, 1962) [DVDRip, Не требуется]
  • Семьдесят два градуса ниже нуля (Сергей Данилин, Евгений Татарский, боевик, ...
  • Украденный поезд (Владимир Янчев, драма, 1971) [DVDRip, Профессиональный (п ...
  • Древо желания (Тенгиз Абуладзе, драма, 1976) [DVDRip, Не требуется]
  • Бабье царство (Алексей Салтыков, драма, 1967) [DVDRip, Не требуется]
  • Вся королевская рать (3 части из 3) (Наум Ардашников, Александр Гуткович, д ...
  • Деревня Утка (Борис Бунеев, семейный, 1976) [DVDRip, Не требуется]
  • Если есть паруса (Валентин Козачков, драма, 1969) [DVDRip, Не требуется]
  • Небесные ласточки (2 части из 2) (Леонид Квинихидзе, мюзикл, драма, комедия ...
  • Не забудь... станция Луговая (Никита Курихин, Леонид Менакер, драма, мелодр ...
  • Капитанская дочка (Владимир Каплуновский, драма, 1958) [DVDRip, Не требуетс ...
  • Чудный характер (Константин Воинов, драма, 1970) [DVDRip, Не требуется]
  • Печники (Виктор Храмов, драма, 1982) [DVDRip, Не требуется]
  • Табор уходит в небо (Эмиль Лотяну, мюзикл, драма, мелодрама, 1976) [DVDRip, ...
  • Я вас любил... (Илья Фрэз, мелодрама, комедия, 1967) [DVDRip, Не требуется] ...
  • Самый красивый конь (Степан Пучинян, мелодрама, 1976) [DVDRip, Не требуется ...
  • У меня есть лев (2 части из 2) (Константин Бромберг, драма, комедия, приклю ...
  • Приключения желтого чемоданчика (Илья Фрэз, комедия, семейный, 1970) [DVDRi ...
  • Степанова памятка (Константин Ершов, фэнтези, 1976) [DVDRip, Не требуется]
  • Информация
    Посетители, находящиеся в группе Гости, не могут оставлять комментарии к данной публикации.