вход на сайт

Имя пользователя :
Пароль :

Восстановление пароля Регистрация
До первой крови (Владимир Фокин, драма, 1989) [DVDRip, Не требуется]
Рейтинг:
(голосов: 1)



[img]{THEME}/images/logopost.png[/img]



До первой крови

Год выпуска: 1989
Страна: СССР
Производство: Студия Горького, Зодиак
Жанр: драма

Режиссёр: Владимир Фокин
В ролях: Андрей Некрасов, Павел Кулаков, Виктор Матин, Константин Ефремов, Борис Деревягин, Андрей Кашуба, Андрей Петров, Эдгар Сентеляс, Андрей Юренев, Алла Плоткина

Перевод: Не требуется
Субтитры: Отсутствуют

Описание:
В пионерском лагере дети играют в традиционную военно-спортивную игру. У всех на плечах бумажные погоны — главный символ в этой игре. Если противник их сорвет — ты «убит». Жестокость ненастоящей войны делает детей озлобленными и одержимыми…


Дополнительно:
MediaInfo ▼Text
Общее
Полное имя :L:До первой кровиДо первой крови.avi
Формат :AVI
Размер :995 MiB
Продолжительность :01:21:47.720
Общий поток :1 702 Kbps
Библиотека кодирования :VirtualDub build 27021/release

Видео
Идентификатор :0
Формат :MPEG-4 Visual
Параметр BVOP формата :2
Параметр Qpel формата :No
Параметр GMC формата :0
Параметр Matrix формата :Default (MPEG)
Идентификатор кодека :DX50
Продолжительность :1h 21mn 47s 720ms
Битрейт :1 500 Kbps
Ширина :672 pixels
Высота :496 pixels
Соотношение сторон :1.355
Частота кадров :25.000 fps
Глубина цвета :8 bits
Подвыборка цветности :4:2:0
Цветовое пространство :YUV
Тип развертки :Progressive
Бит/(Пиксели*Кадры) :0.180
Размер потока :877 MiB (88%)
Библиотека кодирования :DivX503b1307m

Аудио #1
Идентификатор :1
Формат :AC-3
Формат/Информация :Audio Coding 3
Идентификатор кодека :2000
Продолжительность :01:21:47.712
Вид битрейта :Constant
Битрейт :192 Kbps
Канал(ы) :2 channels
Расположение каналов :Front: L R
Частота :48.0 KHz
Битовая глубина :16 bits
Метод сжатия :Lossy
Размер потока :112 MiB (11%)



Тех. данные:
Качество:DVDRip
Продолжительность:01:21:40 час

Формат: AVI
Видео кодек: DivX
Аудио кодек: AC3
Видео: 672 x 496 (4:3), 25.000 fps, 1 5
652c3da8a6ce6d6cfbb778b7e1a0ec6a2e9c5651До первой крови (Владимир Фокин, драма, 1989) [DVDRip, Не требуется] До первой крови (Владимир Фокин, драма, 1989) [DVDRip, Не требуется] " />

Аплоадер: Админ, дата: 11-04-2013, 17:39, торрент скачан: 359 раз

Понравилась раздача? Посмотрите эти:
  • Нейтральные воды (Владимир Беренштейн, драма, 1968) [DVDRip, Не требуется]
  • Старшина (Николай Кошелев, драма, 1979) [DVDRip, Не требуется]
  • Приключения Толи Клюквина (Виктор Эйсымонт, комедия, семейный, 1964) [DVDRi ...
  • Сапоги (Владимир Немоляев, короткометражка, драма, комедия, 1957) [DVDRip, ...
  • Путь к сердцу (Виктор Ивченко, мелодрама, 1970) [DVDRip, Не требуется]
  • Баламут (Владимир Роговой, драма, комедия, 1978) [DVDRip, Не требуется]
  • Город Зеро (Карен Шахназаров, драма, 1989) [DVDRip, Не требуется]
  • Капитанская дочка (Владимир Каплуновский, драма, 1958) [DVDRip, Не требуетс ...
  • Первая перчатка (Андрей Фролов, мюзикл, мелодрама, комедия, спорт, 1946) [D ...
  • Чудный характер (Константин Воинов, драма, 1970) [DVDRip, Не требуется]
  • Суд (Аида Манасарова, Владимир Скуйбин, драма, детектив, 1963) [DVDRip, Не ...
  • Печники (Виктор Храмов, драма, 1982) [DVDRip, Не требуется]
  • Дядя Ваня (Андрей Кончаловский, драма, 1971) [DVDRip, Не требуется]
  • Сотрудник ЧК (Борис Волчек, боевик, история, 1963) [DVDRip, Не требуется]
  • У матросов нет вопросов (Владимир Роговой, мюзикл, комедия, 1980) [DVDRip, ...
  • Светлая личность (Александр Павловский, мюзикл, комедия, 1989) [DVDRip, Не ...
  • Солдатки (Валентин Козачков, драма, 1977) [DVDRip, Не требуется]
  • До первой крови (Владимир Фокин, Драма, 1989) [DVDRip, Не требуется]
  • Донская повесть (Владимир Фетин, драма, 1964) [DVDRip, Не требуется]
  • Пограничный пес Алый (Юлий Файт, драма, 1979) [DVDRip, Не требуется]
  • Вера, надежда, любовь (Владимир Грамматиков, приключения, 1984) [DVDRip, Не ...
  • Кутузов (Владимир Петров, драма, 1943) [DVDRip, Не требуется]
  • Зверобой (2 части из 2) (Андрей Ростоцкий, приключения, 1990) [DVDRip, Не т ...
  • Мексиканец (Владимир Каплуновский, драма, 1955) [DVDRip, Не требуется]
  • Гарем Степана Гуслякова (Алишер Хамдамов, драма, 1989) [TVRip, Не требуетс ...
  • Информация
    Посетители, находящиеся в группе Гости, не могут оставлять комментарии к данной публикации.