вход на сайт

Имя пользователя :
Пароль :

Восстановление пароля Регистрация
Евдокия (Полная реставрация) (Татьяна Лиознова, драма, 1961) [DVDRip, Не требуется]
Рейтинг:
(голосов: 1)



[img]{THEME}/images/logopost.png[/img]



Евдокия (Реставрирован звук и видео)

Год выпуска: 1961
Страна: СССР
Производство: Студия Горького
Жанр: драма

Режиссёр: Татьяна Лиознова
В ролях: Людмила Хитяева, Николай Лебедев, Юрий Ахмадулин, Вера Алтайская, Евгений Ануфриев, А. Арсланов, Александр Барсов, Люба Басова, Валентина Беляева, Леонид Давыдов-Субоч

Перевод: Не требуется
Субтитры: Отсутствуют

Описание:
В небольшом провинциальном городке живут рабочий по имени Евдоким и его жена — Евдокия. Своих детей у них нет, они воспитывают приемных.

Их жизнь может показаться на первый взгляд незамысловатой, обыденной — однако на самом деле она полна сильных страстей, ярких и важных событий, заставляющих глубоко сопереживать героям.


Дополнительно:
MediaInfo ▼Text
Общее
Полное имя :J:ЕвдокияEvdokiya.DVDRip.avi
Формат :AVI
Размер :1.37 GiB
Продолжительность :01:40:31.080
Общий поток :1 948 Kbps
Программа кодирования :VirtualDubMod 1.5.4.1 (build 2178/release)
Библиотека кодирования :VirtualDubMod build 2178/release

Видео
Идентификатор :0
Формат :MPEG-4 Visual
Параметр BVOP формата :1
Параметр Qpel формата :No
Параметр GMC формата :0
Параметр Matrix формата :Default (H.263)
Идентификатор кодека :DX50
Продолжительность :1h 40mn 31s 80ms
Битрейт :1 493 Kbps
Ширина :720 pixels
Высота :544 pixels
Соотношение сторон :1.324
Частота кадров :25.000 fps
Глубина цвета :8 bits
Подвыборка цветности :4:2:0
Цветовое пространство :YUV
Тип развертки :Progressive
Бит/(Пиксели*Кадры) :0.153
Размер потока :1.05 GiB (77%)
Библиотека кодирования :DivX503b2559p

Аудио #1
Идентификатор :1
Формат :AC-3
Формат/Информация :Audio Coding 3
Идентификатор кодека :2000
Продолжительность :01:40:31.072
Вид битрейта :Constant
Битрейт :448 Kbps
Канал(ы) :6 channels
Расположение каналов :Front: L C R, Side: L R, LFE
Частота :48.0 KHz
Битовая глубина :16 bits
Метод сжатия :Lossy
Размер потока :322 MiB (23
4f8014bc947419927ea35b8efc936fc6fe857e60Евдокия (Полная реставрация) (Татьяна Лиознова, драма, 1961) [DVDRip, Не требуется] Евдокия (Полная реставрация) (Татьяна Лиознова, драма, 1961) [DVDRip, Не требуется] " />

Аплоадер: Админ, дата: 11-04-2013, 17:23, торрент скачан: 359 раз

Понравилась раздача? Посмотрите эти:
  • На подмостках сцены (Константин Юдин, драма, комедия, 1956) [DVDRip, Не тре ...
  • Начало (Глеб Панфилов, мелодрама, комедия, 1970) [DVDRip, Не требуется]
  • Человек идёт за солнцем (Михаил Калик, драма, 1961) [DVDRip, Не требуется]
  • Старшина (Николай Кошелев, драма, 1979) [DVDRip, Не требуется]
  • Путевка в Жизнь (Николай Экк, драма, 1931) [DVDRip, Не требуется]
  • Далеко от Москвы (Александр Столпер, драма, 1950) [DVDRip, Не требуется]
  • Завтрак на траве (Николай Александрович, детский, комедия, 1979) [DVDRip, Н ...
  • Друг мой, Колька!.. (Александр Митта, Алексей Салтыков, драма, 1961) [DVDRi ...
  • Ой, вы, гуси... (Лидия Боброва, Драма, 1991) [DVDRip, Не требуется]
  • Левша (Сергей Овчаров, драма, комедия, 1986) [DVDRip, Не требуется]
  • Карнавал (2 части из 2) (Татьяна Лиознова, мюзикл, комедия, 1981) [DVDRip, ...
  • Печники (Виктор Храмов, драма, 1982) [DVDRip, Не требуется]
  • Чудак из пятого «Б» (Илья Фрэз, комедия, семейный, 1972) [DVDRip, Не требуе ...
  • Карусель (Михаил Швейцер, комедия, 1970) [DVDRip, Не требуется]
  • Тень (Реставрация) (Надежда Кошеверова, фэнтези, драма, мелодрама, комедия, ...
  • Приключения маленького папы (Дмитрий Крупко, детский, комедия, 1979) [DVDRi ...
  • Деловые люди (полная реставрация) (Леонид Гайдай, комедия, драма, 1962) [DV ...
  • Дом на дюнах (Дмитрий Салынский, приключения, 1984) [DVDRip, Не требуется]
  • Приключения Кроша (Генрих Оганесян, семейный, 1961) [DVDRip, Не требуется]
  • Карьера Димы Горина (Фрунзе Довлатян, Лев Мирский, комедия, 1962) [DVDRip, ...
  • Информация
    Посетители, находящиеся в группе Гости, не могут оставлять комментарии к данной публикации.