вход на сайт

Имя пользователя :
Пароль :

Восстановление пароля Регистрация
Жди меня (Борис Иванов, Александр Столпер, драма, военный, 1972) [DVDRip, Не требуется]
Рейтинг:
(голосов: 1)



[img]{THEME}/images/logopost.png[/img]



Жди меня

Год выпуска: 1972
Страна: СССР
Производство: Мосфильм, ЦОКС
Жанр: драма, военный

Режиссёр: Борис Иванов, Александр Столпер
В ролях: Борис Блинов, Валентина Серова, Лев Свердлин, Михаил Названов, Нина Зорская, Елена Тяпкина, Андрей Апсолон, Людмила Глазова, Павел Герага, Антон Мартынов

Перевод: Не требуется
Субтитры: Отсутствуют

Описание:
История всепобеждающей любви военного времени. Редкий солдат не знал симоновскую поэтическую строку «Жди меня — и я вернусь…»; многие утверждали, что она помогла им выжить…


Дополнительно:
MediaInfo ▼Text
Общее
Полное имя :L:Жди меняhdi menja.avi
Формат :AVI
Размер :744 MiB
Продолжительность :01:27:08.640
Общий поток :1 194 Kbps

Видео
Идентификатор :0
Формат :MPEG-4 Visual
Профиль формата :Advanced [email protected]
Параметр BVOP формата :1
Параметр Qpel формата :No
Параметр GMC формата :0
Параметр Matrix формата :Custom
Идентификатор кодека :XVID
Продолжительность :1h 27mn 8s 640ms
Битрейт :1 059 Kbps
Ширина :576 pixels
Высота :432 pixels
Соотношение сторон :1.333
Частота кадров :25.000 fps
Глубина цвета :8 bits
Подвыборка цветности :4:2:0
Цветовое пространство :YUV
Тип развертки :Progressive
Бит/(Пиксели*Кадры) :0.170
Размер потока :660 MiB (89%)
Библиотека кодирования :XviD0046

Аудио #1
Идентификатор :1
Формат :MPEG Audio
Идентификатор кодека :55
Продолжительность :01:27:08.496
Вид битрейта :Constant
Битрейт :128 Kbps
Канал(ы) :2 channels
Частота :48.0 KHz
Метод сжатия :Lossy
Размер потока :79.8 MiB (11%)
Язык : / / / Swati



Тех. данные:
Качество:DVDRip
Продолжительность:01:27:00 час

Формат: AVI
Видео кодек: XviD
Аудио кодек: MPA1L3
Видео: 576 x 432 (4:3), 25.000 fps, 1 059 Kbps, 0.170 bit/pixel
Аудио : 48.0 KHz, , 2 channels (), 128 Kbps



769e8d26bcc31f8add0f6982e366665a46ada018Жди меня (Борис Иванов, Александр Столпер, драма, военный, 1972) [DVDRip, Не требуется] Жди меня (Борис Иванов, Александр Столпер, драма, военный, 1972) [DVDRip, Не требуется] " />

Аплоадер: Админ, дата: 11-04-2013, 17:21, торрент скачан: 359 раз

Понравилась раздача? Посмотрите эти:
  • Александр Невский (Сергей Эйзенштейн, Дмитрий Васильев, Борис Иванов, боеви ...
  • Летят журавли (Михаил Калатозов, драма, мелодрама, военный, 1957) [DVDRip, ...
  • Зимородок (Вячеслав Никифоров, военный, 1972) [DVDRip, Не требуется]
  • Дорога (Александр Столпер, боевик, 1955) [DVDRip, Не требуется]
  • Четвертый (Александр Столпер, драма, 1972) [DVDRip, Не требуется]
  • Парень из нашего города (Александр Столпер, Борис Иванов, драма, военный, 1 ...
  • Вся королевская рать (3 части из 3) (Наум Ардашников, Александр Гуткович, д ...
  • Далеко от Москвы (Александр Столпер, драма, 1950) [DVDRip, Не требуется]
  • Живые и мертвые (2 части из 2) (Александр Столпер, драма, военный, 1963) [D ...
  • Оптимистическая трагедия (Самсон Самсонов, драма, военный, история, 1963) [ ...
  • Михайло Ломоносов (Александр Иванов, драма, история, 1955) [DVDRip, Не треб ...
  • Комиссар (Александр Аскольдов, драма, военный, 1967) [DVDRip, Не требуется] ...
  • Жди меня (Борис Иванов, Александр Столпер, драма, военный, 1943) [DVDRip ...
  • Повесть о «Неистовом» (Борис Бабочкин, драма, военный, 1947) [DVDRip, Перев ...
  • Тропой бескорыстной любви (Агаси Бабаян, драма, 1972) [DVDRip, Не требуется ...
  • Повесть о настоящем человеке (Александр Столпер, драма, военный, 1948) [DVD ...
  • Чайка (Юлий Карасик, драма, 1972) [DVDRip, Не требуется]
  • Мульт-Салют. 7 ч. из 30: Приключения Буратино/Чиполлино (Иван Иванов-Вано, ...
  • Славный малый (Борис Барнет, военный, 1943) [DVDRip, Не требуется]
  • У меня есть лев (2 части из 2) (Константин Бромберг, драма, комедия, приклю ...
  • Информация
    Посетители, находящиеся в группе Гости, не могут оставлять комментарии к данной публикации.