вход на сайт

Имя пользователя :
Пароль :

Восстановление пароля Регистрация
Защитник Седов (Евгений Цымбал, драма, 1988) [DVDRip, Не требуется]
Рейтинг:
(голосов: 1)



[img]{THEME}/images/logopost.png[/img]



Защитник Седов

Год выпуска: 1988
Страна: СССР
Производство: Мосфильм
Жанр: драма

Режиссёр: Евгений Цымбал
В ролях: Владимир Ильин, Альбина Матвеева, Тамара Чернова, Татьяна Рогозина, Вацлав Дворжецкий, Всеволод Ларионов, Гарик Сукачев, Наталья Щукина, Игорь Николаев, Пётр Меркурьев

Перевод: Не требуется
Субтитры: Отсутствуют

Описание:
1937 год. Разгар сталинского «большого террора». Столичный адвокат едет в провинцию, чтобы попытаться предотвратить беззаконие. Как не странно ему это удается, но вместо тех, кого он спас, расстреливают всех, кто имел отношение к этому делу. Механизм репрессий продолжает адскую работу и ему нужны все новые и новые жертвы.


Дополнительно:
MediaInfo ▼Text
Общее
Полное имя :K:Защитник СедовЗащитник Седов.avi
Формат :AVI
Размер :684 MiB
Продолжительность :00:43:04.008
Общий поток :2 221 Kbps
Программа кодирования :VirtualDubMod 1.5.10.2 (build 2540/release)
Библиотека кодирования :VirtualDubMod build 2540/release

Видео
Идентификатор :0
Формат :MPEG-4 Visual
Профиль формата :Advanced [email protected]
Параметр BVOP формата :3
Параметр Qpel формата :Yes
Параметр GMC формата :3
Параметр Matrix формата :Default (H.263)
Идентификатор кодека :XVID
Продолжительность :43mn 4s 0ms
Битрейт :2 084 Kbps
Ширина :720 pixels
Высота :552 pixels
Соотношение сторон :1.304
Частота кадров :25.000 fps
Глубина цвета :8 bits
Подвыборка цветности :4:2:0
Цветовое пространство :YUV
Тип развертки :Progressive
Бит/(Пиксели*Кадры) :0.210
Размер потока :642 MiB (94%)
Библиотека кодирования :XviD0047

Аудио #1
Идентификатор :1
Формат :MPEG Audio
Идентификатор кодека :55
Продолжительность :00:43:04.008
Вид битрейта :Constant
Битрейт :128 Kbps
Канал(ы) :2 channels
Частота :48.0 KHz
Метод сжатия :Lossy
Размер потока :39.4 MiB (6%)



Тех. данные:
Качество:DVDRip
Продолжительность:00:43:08 час

Формат: AVI
Видео кодек: XviD
Аудио код
61f2a6adfd0ed939892289a169ffaf33dc39463dЗащитник Седов (Евгений Цымбал, драма, 1988) [DVDRip, Не требуется] Защитник Седов (Евгений Цымбал, драма, 1988) [DVDRip, Не требуется] " />

Аплоадер: Админ, дата: 10-04-2013, 18:27, торрент скачан: 359 раз

Понравилась раздача? Посмотрите эти:
  • Золотые яблоки (Фёдор Филиппов, семейный, 1954) [DVDRip, Не требуется]
  • Вас вызывает Таймыр (Алексей Коренев, комедия, 1970) [DVDRip, Не требуется] ...
  • Будни и праздники Серафимы Глюкиной (2 части из 2) (Ростислав Горяев, драма ...
  • Аленка (Борис Барнет, комедия, 1961) [DVDRip, Не требуется]
  • Акваланги на дне (Евгений Шерстобитов, боевик, приключения, семейный, 1965) ...
  • Абориген (Елена Николаева, драма, 1988) [DVDRip, Не требуется]
  • Дневной поезд (Инесса Селезнева, драма, 1976) [DVDRip, Не требуется]
  • Вы чье, старичье? (Иосиф Хейфиц, драма, 1988) [DVDRip, Не требуется]
  • Человек идёт за солнцем (Михаил Калик, драма, 1961) [DVDRip, Не требуется]
  • Тачанка с Юга (Евгений Шерстобитов, приключения, 1977) [DVDRip, Не требуетс ...
  • Степень риска (Илья Авербах, драма, 1968) [DVDRip, Не требуется]
  • Неподсуден (Владимир Краснопольский, Валерий Усков, драма, 1969) [DVDRip, Н ...
  • Князь Игорь (Роман Тихомиров, мюзикл, приключения, 1969) [DVDRip, Не требуе ...
  • Капитанская дочка (Владимир Каплуновский, драма, 1958) [DVDRip, Не требуетс ...
  • Пиковая Дама (Роман Тихомиров, мюзикл, драма, 1961) [DVDRip, Не требуется]
  • Чудный характер (Константин Воинов, драма, 1970) [DVDRip, Не требуется]
  • Печники (Виктор Храмов, драма, 1982) [DVDRip, Не требуется]
  • Степь (2 части из 2) (Сергей Бондарчук, драма, история, 1977) [DVDRip, Не т ...
  • Я вас любил... (Илья Фрэз, мелодрама, комедия, 1967) [DVDRip, Не требуется] ...
  • Прощайте, фараоны! (Давид Черкасский, Вячеслав Винник, комедия, 1974) [DVDR ...
  • Приключения желтого чемоданчика (Илья Фрэз, комедия, семейный, 1970) [DVDRi ...
  • Адмирал Нахимов (Всеволод Пудовкин, драма, военный, биография, история, 194 ...
  • Кутузов (Владимир Петров, драма, 1943) [DVDRip, Не требуется]
  • Сердца четырех (Константин Юдин, мелодрама, комедия, 1941) [DVDRip, Не треб ...
  • Комбаты (2 части из 2) (Вячеслав Колегаев, военный, 1983) [DVDRip, Не требу ...
  • Информация
    Посетители, находящиеся в группе Гости, не могут оставлять комментарии к данной публикации.