вход на сайт

Имя пользователя :
Пароль :

Восстановление пароля Регистрация
Зеленые цепочки (Григорий Аронов, приключения, 1970) [DVDRip, Не требуется]
Рейтинг:
(голосов: 1)



[img]{THEME}/images/logopost.png[/img]



Зеленые цепочки

Год выпуска: 1970
Страна: СССР
Производство: Ленфильм
Жанр: приключения

Режиссёр: Григорий Аронов
В ролях: Александр Григорьев, Владимир Лелетко, Павел Луспекаев, Олег Белов, Людмила Глазова, Алексей Михайлов, Аристарх Ливанов, Федор Одиноков, Александр Липов, Юрий Оськин

Перевод: Не требуется
Субтитры: Отсутствуют

Описание:
Трое ленинградских мальчишек осенью 1941 года, случайно найдя ракетницу, вышли на след шпионской банды и под руководством опытного чекиста Буракова обезвредили фашистского диверсанта, орудующего в облике однорукого дяди Пети.


Дополнительно:
MediaInfo ▼Text
Общее
Полное имя :L:Зеленые цепочкиZelenie cepochki.avi
Формат :AVI
Размер :745 MiB
Продолжительность :01:32:25.920
Общий поток :1 127 Kbps
Программа кодирования :VirtualDubModRus 1.5.10.2 (build 2542/release)
Библиотека кодирования :VirtualDubMod build 2542/release

Видео
Идентификатор :0
Формат :MPEG-4 Visual
Параметр BVOP формата :1
Параметр Qpel формата :No
Параметр GMC формата :0
Параметр Matrix формата :Default (H.263)
Идентификатор кодека :DX50
Продолжительность :1h 32mn 25s 920ms
Битрейт :989 Kbps
Ширина :672 pixels
Высота :288 pixels
Соотношение сторон :2.333
Частота кадров :25.000 fps
Глубина цвета :8 bits
Подвыборка цветности :4:2:0
Цветовое пространство :YUV
Тип развертки :Progressive
Бит/(Пиксели*Кадры) :0.204
Размер потока :654 MiB (88%)
Библиотека кодирования :DivX503b2676p

Аудио #1
Идентификатор :1
Формат :MPEG Audio
Идентификатор кодека :55
Продолжительность :01:32:25.920
Вид битрейта :Constant
Битрейт :128 Kbps
Канал(ы) :2 channels
Частота :48.0 KHz
Метод сжатия :Lossy
Размер потока :84.6 MiB (11%)Тех. данные:
Качество:DVDRip
Продолжительность:01:32:20 час

Формат: AVI
Видео кодек: DivX
Аудио кодек: MPA1L3
Видео: 672 x 288 (2.35:1), 25.000 fps, 989 Kbps, 0.204 bit/pixel
Аудио : 48.0 KHz, , 2 channels (), 128 Kbps



00e31532ad50939efdea900c98f94ff158145631Зеленые цепочки (Григорий Аронов, приключения, 1970) [DVDRip, Не требуется] Зеленые цепочки (Григорий Аронов, приключения, 1970) [DVDRip, Не требуется] " />

Аплоадер: Админ, дата: 10-04-2013, 18:25, торрент скачан: 359 раз

Понравилась раздача? Посмотрите эти:
  • Случай с Полыниным (Алексей Сахаров, драма, военный, 1970) [DVDRip, Не треб ...
  • Вас вызывает Таймыр (Алексей Коренев, комедия, 1970) [DVDRip, Не требуется] ...
  • Судьба резидента (2 части из 2) (Вениамин Дорман, детектив, приключения, 19 ...
  • О чем шумит река (Григорий Мелик-Авакян, драма, 1959) [DVDRip, Не требуется ...
  • Начало (Глеб Панфилов, мелодрама, комедия, 1970) [DVDRip, Не требуется]
  • Эзоп (Олег Рябоконь, драма, история, 1981) [DVDRip, Не требуется]
  • Тайна железной двери (Михаил Юзовский, фантастика, приключения, семейный, 1 ...
  • Пакет (Владимир Назаров, комедия, приключения, семейный, 1965) [DVDRip, Не ...
  • Волшебная сила (Наум Бирман, мюзикл, комедия, семейный, 1970) [DVDRip, Не т ...
  • Опекун (Эдгар Ходжикян, Альберт С. Мкртчян, комедия, 1970) [DVDRip, Не треб ...
  • Черная чайка (Григорий Колтунов, приключения, 1962) [DVDRip, Не требуется]
  • Седьмой спутник (Григорий Аронов, Алексей Герман, драма, 1967) [DVDRip, Не ...
  • Карусель (Михаил Швейцер, комедия, 1970) [DVDRip, Не требуется]
  • Таинственный остров (Эдуард Пенцлин, фантастика, приключения, семейный, 194 ...
  • Садко (Александр Птушко, фэнтези, приключения, 1952) [DVDRip, Не требуется] ...
  • Тихий Дон (3 части из 3) (Сергей Герасимов, драма, военный, 1957) [DVDRip, ...
  • Чудак-человек (Владимир Кочетов, комедия, 1962) [DVDRip, Не требуется]
  • Белый клык (Александр Згуриди, приключения, 1947) [DVDRip, Не требуется]
  • Вера, надежда, любовь (Владимир Грамматиков, приключения, 1984) [DVDRip, Не ...
  • Неизвестный солдат (3 части из 3) (Григорий Аронов, Вадим Зобин, драма, 198 ...
  • Информация
    Посетители, находящиеся в группе Гости, не могут оставлять комментарии к данной публикации.