вход на сайт

Имя пользователя :
Пароль :

Восстановление пароля Регистрация
Зимородок (Вячеслав Никифоров, военный, 1972) [DVDRip, Не требуется]
Рейтинг:
(голосов: 1)



[img]{THEME}/images/logopost.png[/img]



Зимородок

Год выпуска: 1972
Страна: СССР
Производство: Беларусьфильм
Жанр: военный

Режиссёр: Вячеслав Никифоров
В ролях: Саша Кузьмин, Миша Мусыгин, Ирина Нарбекова, Владимир Самойлов, Глеб Стриженов, Александр Хвыля, Александр Самойлов, Антонина Максимова, Виталий Базин, Михаил Брылкин

Перевод: Не требуется
Субтитры: Отсутствуют

Описание:
Марат и его товарищи по классу разыскивают героя войны партизана-подрывника известного под именем Зимородок о подвиге, которого они узнали от бывшего летчика Седого.


Дополнительно:
MediaInfo ▼Text
Общее
Полное имя :L:ЗимородокЗимородок.1972.avi
Формат :AVI
Размер :723 MiB
Продолжительность :01:15:06.080
Общий поток :1 347 Kbps
Программа кодирования :VirtualDubMod 1.5.10.2 (build 2540/release)
Библиотека кодирования :VirtualDubMod build 2540/release

Видео
Идентификатор :0
Формат :MPEG-4 Visual
Профиль формата :Advanced [email protected]
Параметр BVOP формата :2
Параметр Qpel формата :Yes
Параметр GMC формата :3
Параметр Matrix формата :Default (H.263)
Идентификатор кодека :XVID
Продолжительность :1h 15mn 6s 80ms
Битрейт :1 209 Kbps
Ширина :688 pixels
Высота :312 pixels
Соотношение сторон :2.205
Частота кадров :25.000 fps
Глубина цвета :8 bits
Подвыборка цветности :4:2:0
Цветовое пространство :YUV
Тип развертки :Progressive
Бит/(Пиксели*Кадры) :0.225
Размер потока :649 MiB (90%)
Библиотека кодирования :XviD0047

Аудио #1
Идентификатор :1
Формат :MPEG Audio
Идентификатор кодека :55
Продолжительность :01:15:06.072
Вид битрейта :Constant
Битрейт :128 Kbps
Канал(ы) :2 channels
Частота :48.0 KHz
Метод сжатия :Lossy
Размер потока :68.8 MiB (10%)Тех. данные:
Качество:DVDRip
Продолжительность:01:15:00 час

Формат: AVI
Видео кодек: XviD
Аудио кодек: MPA1L3
Видео: 688 x 312 (2.2:1), 25.000 fps, 1 209 Kbps, 0.225 bit/pixel
Аудио : 48.0 KHz, , 2 channels (), 128 Kbps

e3d8c094df29cff761e55b6c71a57403188919a1Зимородок (Вячеслав Никифоров, военный, 1972) [DVDRip, Не требуется] Зимородок (Вячеслав Никифоров, военный, 1972) [DVDRip, Не требуется] " />

Аплоадер: Админ, дата: 10-04-2013, 18:20, торрент скачан: 359 раз

Понравилась раздача? Посмотрите эти:
  • Бой под Соколом (Александр Разумный, военный, 1942) [DVDRip, Не требуется]
  • "Мерседес" уходит от погони (Юрий Ляшенко, военный, 1980) [DVDRip, Не требу ...
  • Жди меня (Борис Иванов, Александр Столпер, драма, военный, 1972) [DVDRip, Н ...
  • Два гусара (Вячеслав Криштофович, мелодрама, 1984) [DVDRip, Не требуется]
  • Шел четвертый год войны... (Георгий Николаенко, военный, 1983) [DVDRip, Не ...
  • Четвертый (Александр Столпер, драма, 1972) [DVDRip, Не требуется]
  • Бой после победы (2 части из 2) (Виллен Азаров, триллер, военный, 1972) [DV ...
  • Ох, уж эта Настя! (Юрий Победоносцев, семейный, 1972) [DVDRip, Не требуется ...
  • Захар Беркут (Леонид Осыка, драма, история, 1972) [DVDRip, Не требуется]
  • Комиссар (Александр Аскольдов, драма, военный, 1967) [DVDRip, Не требуется] ...
  • Капитанская дочка (Владимир Каплуновский, драма, 1958) [DVDRip, Не требуетс ...
  • Тропой бескорыстной любви (Агаси Бабаян, драма, 1972) [DVDRip, Не требуется ...
  • Черная гора (Александр Згуриди, драма, семейный, 1972) [DVDRip, Профессиона ...
  • Родина зовет (Александр Мачерет, военный, 1936) [DVDRip, Не требуется]
  • Чайка (Юлий Карасик, драма, 1972) [DVDRip, Не требуется]
  • Чудак из пятого «Б» (Илья Фрэз, комедия, семейный, 1972) [DVDRip, Не требуе ...
  • Прощайте, фараоны! (Давид Черкасский, Вячеслав Винник, комедия, 1974) [DVDR ...
  • Р.В.С. (Алексей Мороз, военный, 1977) [DVDRip, (2х)Оригинал (русский)]
  • Адмирал Нахимов (Всеволод Пудовкин, драма, военный, биография, история, 194 ...
  • Котовский (Александр Файнциммер, военный, биография, история, 1942) [DVDRip ...
  • Информация
    Посетители, находящиеся в группе Гости, не могут оставлять комментарии к данной публикации.