вход на сайт

Имя пользователя :
Пароль :

Восстановление пароля Регистрация
История одного подзатыльника (Владимир Бычков, комедия, 1980) [DVDRip, Не требуется]
Рейтинг:
(голосов: 1)



[img]{THEME}/images/logopost.png[/img]



История одного подзатыльника

Год выпуска: 1980
Страна: СССР
Производство: ТО Экран
Жанр: комедия

Режиссёр: Владимир Бычков
В ролях: Альберт Филозов, Павел Кормунин, Игорь Косухин, Евгений Тетерин, Наталья Каширина, Евгений Лившиц

Перевод: Не требуется
Субтитры: Отсутствуют

Описание:
Николай Иванович, папа Славика Козлова, для закрепления учебного материала изредка отпускает родительские подзатыльники. Ему не нравится, что сын прохладно относится к точным наукам, отдавая предпочтение музыке.

Старый друг семьи Козловых дядя Митя послал письмо на телепередачу, где от имени Николая Ивановича уверял редакцию в полезности родительского наказания. На следующий день о методах Колова-старшего знал весь город.

Против отцовских подзатыльников встали все знакомые Николая Ивановича. Проведя несколько дней в тяжёлых раздумьях и поговорив откровенно с дядей Митей, Николай Иванович изменил своё отношение к воспитанию сына.


Дополнительно:
MediaInfo ▼Text
Общее
Полное имя :L:История одного подзатыльникаistorija odnogo podzatylnika.avi
Формат :AVI
Размер :355 MiB
Продолжительность :00:35:28.880
Общий поток :1 398 Kbps

Видео
Идентификатор :0
Формат :MPEG-4 Visual
Профиль формата :[email protected]
Параметр BVOP формата :No
Параметр Qpel формата :No
Параметр GMC формата :0
Параметр Matrix формата :Default (H.263)
Идентификатор кодека :XVID
Продолжительность :35mn 28s 880ms
Битрейт :1 071 Kbps
Ширина :720 pixels
Высота :544 pixels
Соотношение сторон :1.324
Частота кадров :25.000 fps
Глубина цвета :8 bits
Подвыборка цветности :4:2:0
Цветовое пространство :YUV
Тип развертки :Progressive
Бит/(Пиксели*Кадры) :0.109
Размер потока :272 MiB (77%)
Библиотека кодирования :ZJMedia MPEG Encoder

Аудио #1
Идентификатор :1
Формат :MPEG Audio
Идентификатор кодека :55
Продолжительность :00:35:28.848
Вид битрейта :Constant
Битрейт :320 Kbps
Канал(ы) :2 channels
Частота :48.0 KHz
Метод сжатия :Lossy
Размер потока :81.2 MiB (23%)



Тех.
978c2a9e364a3c1323f3b44e39a4fb5979001010История одного подзатыльника (Владимир Бычков, комедия, 1980) [DVDRip, Не требуется] История одного подзатыльника (Владимир Бычков, комедия, 1980) [DVDRip, Не требуется] " />

Аплоадер: Админ, дата: 10-04-2013, 18:04, торрент скачан: 359 раз

Понравилась раздача? Посмотрите эти:
  • Достояние республики (2 части из 2) (Владимир Бычков, Студия Горького, 1971 ...
  • Гражданин Лёшка (Виктор Крючков, комедия, 1980) [DVDRip, Не требуется]
  • Попрыгунья (Самсон Самсонов, драма, 1955) [DVDRip, Не требуется]
  • Сапоги (Владимир Немоляев, короткометражка, драма, комедия, 1957) [DVDRip, ...
  • Баламут (Владимир Роговой, драма, комедия, 1978) [DVDRip, Не требуется]
  • Город мастеров (Владимир Бычков, фэнтези, приключения, семейный, история, 1 ...
  • Опекун (Эдгар Ходжикян, Альберт С. Мкртчян, комедия, 1970) [DVDRip, Не треб ...
  • Моя любовь (Владимир Корш-Саблин, мюзикл, мелодрама, комедия, 1940) [DVDRip ...
  • Лес (Владимир Мотыль, драма, 1980) [DVDRip, Не требуется]
  • Капитанская дочка (Владимир Каплуновский, драма, 1958) [DVDRip, Не требуетс ...
  • Дуэнья (Михаил Григорьев, комедия, история, 1978) [DVDRip, Не требуется]
  • Эскадрон гусар летучих (Никита Хубов, Станислав Ростоцкий, военный, 1980) [ ...
  • Трое суток после бессмертия (Владимир Довгань, военный, история, 1963) [DVD ...
  • Солёный пёс (Николай Кошелев, драма, комедия, 1973) [DVDRip, Не требуется]
  • Суд (Аида Манасарова, Владимир Скуйбин, драма, детектив, 1963) [DVDRip, Не ...
  • Бабушки надвое сказали (Валерий Харченко, Юрий Клебанов, комедия, 1979) [DV ...
  • Степь (2 части из 2) (Сергей Бондарчук, драма, история, 1977) [DVDRip, Не т ...
  • Табачный капитан (Игорь Усов, мюзикл, комедия, история, 1972) [DVDRip, Не т ...
  • Совершенно серьезно (Леонид Гайдай, Эльдар Рязанов, Владимир Семаков, коме ...
  • Сотрудник ЧК (Борис Волчек, боевик, история, 1963) [DVDRip, Не требуется]
  • У матросов нет вопросов (Владимир Роговой, мюзикл, комедия, 1980) [DVDRip, ...
  • Прощайте, фараоны! (Давид Черкасский, Вячеслав Винник, комедия, 1974) [DVDR ...
  • В начале славных дел (Сергей Герасимов, драма, история, 1980) [DVDRip, Не т ...
  • Русалочка (Владимир Бычков, мюзикл, фэнтези, мелодрама, семейный, 1976) [DV ...
  • Кутузов (Владимир Петров, драма, 1943) [DVDRip, Не требуется]
  • Информация
    Посетители, находящиеся в группе Гости, не могут оставлять комментарии к данной публикации.