вход на сайт

Имя пользователя :
Пароль :

Восстановление пароля Регистрация
Каштанка (Роман Балаян, приключения, 1975) [DVDRip, Не требуется]
Рейтинг:
(голосов: 1)



[img]{THEME}/images/logopost.png[/img]



Каштанка

Год выпуска: 1975
Страна: СССР
Производство: Студия Довженко
Жанр: приключения

Режиссёр: Роман Балаян
В ролях: Вячеслав Борисов, Лев Дуров, Олег Табаков, Виктор Панченко, Зоя Недбай

Перевод: Не требуется
Субтитры: Отсутствуют

Описание:
Потерявшуюся собаку Каштанку подбирает на улице цирковой актер месье Жорж. Он дает ей новое имя — Тетка и, подготовив с ней номер, начинает выступать в цирке. Их выступления пользуются большим успехом.


Дополнительно:
MediaInfo ▼Text
Общее
Полное имя :L:Каштанка.1975Kashtanka.1975.DVDRip.avi
Формат :AVI
Размер :894 MiB
Продолжительность :01:04:50.480
Общий поток :1 927 Kbps
Программа кодирования :VirtualDubMod 1.5.4.1 (build 2178/release)
Библиотека кодирования :VirtualDubMod build 2178/release

Видео
Идентификатор :0
Формат :MPEG-4 Visual
Профиль формата :Advanced [email protected]
Параметр BVOP формата :1
Параметр Qpel формата :No
Параметр GMC формата :0
Параметр Matrix формата :Custom
Идентификатор кодека :XVID
Продолжительность :1h 4mn 50s 480ms
Битрейт :1 473 Kbps
Ширина :704 pixels
Высота :528 pixels
Соотношение сторон :1.333
Частота кадров :25.000 fps
Глубина цвета :8 bits
Подвыборка цветности :4:2:0
Цветовое пространство :YUV
Тип развертки :Progressive
Бит/(Пиксели*Кадры) :0.158
Размер потока :683 MiB (76%)
Библиотека кодирования :XviD0050

Аудио #1
Идентификатор :1
Формат :AC-3
Формат/Информация :Audio Coding 3
Идентификатор кодека :2000
Продолжительность :01:04:50.112
Вид битрейта :Constant
Битрейт :448 Kbps
Канал(ы) :6 channels
Расположение каналов :Front: L C R, Side: L R, LFE
Частота :48.0 KHz
Битовая глубина :16 bits
Метод сжатия :Lossy
Размер потока :208 MiB (23%)
Язык :English



Тех. данные:
Качес
3dbbc18ca76571f05ca504f0aa4d928410a49c74Каштанка (Роман Балаян, приключения, 1975) [DVDRip, Не требуется] Каштанка (Роман Балаян, приключения, 1975) [DVDRip, Не требуется] " />

Аплоадер: Админ, дата: 9-04-2013, 18:41, торрент скачан: 359 раз

Понравилась раздача? Посмотрите эти:
  • Два гусара (Вячеслав Криштофович, мелодрама, 1984) [DVDRip, Не требуется]
  • Военно-полевой роман (Петр Тодоровский, драма, мелодрама, 1983) [DVDRip, Не ...
  • Тайна горного подземелья (Лев Мирский, детский, приключения, 1975) [DVDRip, ...
  • Стрелы Робин Гуда (Сергей Тарасов, боевик, приключения, история, 1975) [DVD ...
  • Совсем пропащий (Георгий Данелия, приключения, 1973) [DVDRip, Не требуется] ...
  • Приключения Толи Клюквина (Виктор Эйсымонт, комедия, семейный, 1964) [DVDRi ...
  • Последняя жертва (Петр Тодоровский, драма, мелодрама, 1975) [DVDRip, Не тре ...
  • Афоня (Георгий Данелия, драма, мелодрама, комедия, 1975) [DVDRip, Не требуе ...
  • Ау-у! (Геральд Бежанов, Юрий Горковенко, Виктор Крючков, комедия, 1975) [DV ...
  • Ой, вы, гуси... (Лидия Боброва, Драма, 1991) [DVDRip, Не требуется]
  • Князь Игорь (Роман Тихомиров, мюзикл, приключения, 1969) [DVDRip, Не требуе ...
  • Черная чайка (Григорий Колтунов, приключения, 1962) [DVDRip, Не требуется]
  • Это мы не проходили (Илья Фрэз, драма, 1975) [DVDRip, Не требуется]
  • Мульт-Салют. 5 ч. из 30: Ох и Ах/Слоненок и письмо/Возвращение блудного поп ...
  • Небывальщина (Сергей Овчаров, комедия, 1983) [DVDRip, Не требуется]
  • Танкер «Дербент» (Александр Файнциммер, приключения, 1940) [DVDRip, Не треб ...
  • Приключения маленького папы (Дмитрий Крупко, детский, комедия, 1979) [DVDRi ...
  • Пропавшая экспедиция (2 части из 2) (Вениамин Дорман, драма, детектив, прик ...
  • Золотая речка (Вениамин Дорман, приключения, 1977) [DVDRip, Не требуется]
  • Дом на дюнах (Дмитрий Салынский, приключения, 1984) [DVDRip, Не требуется]
  • Информация
    Посетители, находящиеся в группе Гости, не могут оставлять комментарии к данной публикации.