вход на сайт

Имя пользователя :
Пароль :

Восстановление пароля Регистрация
Крепкий орешек (Теодор Вульфович, комедия, военный, 1967) [DVDRip, Не требуется]
Рейтинг:
(голосов: 1)



[img]{THEME}/images/logopost.png[/img]



Крепкий орешек

Год выпуска: 1967
Страна: СССР
Производство: Мосфильм
Жанр: комедия, военный

Режиссёр: Теодор Вульфович
В ролях: Надежда Румянцева, Виталий Соломин, Павел Винник, Юрий Сорокин, Владимир Буяновский, Лидия Драновская, Микаэла Дроздовская, Анатолий Голик, Герман Качин, Любовь Калюжная

Перевод: Не требуется
Субтитры: Отсутствуют

Описание:
После ранения Иван Грозных назначен командиром женского подразделения ПВО. Одна из подчиненных доставляет ему кучу хлопот своей недисциплинированностью.

В конце концов, их вдвоем заносит на аэростате в тыл противника, где начинаются столь же невероятные, сколь и смешные приключения. К счастью, они заканчиваются благополучно. Однако выясняется, что уйти с занятой врагом территории проще, чем от влюбленной девицы…


Дополнительно:
MediaInfo ▼Text
Общее
Полное имя :L:Крепкий орешек.1967Krepkij.oreshek.1967.DVDRip.avi
Формат :AVI
Размер :745 MiB
Продолжительность :01:13:35.760
Общий поток :1 416 Kbps
Программа кодирования :VirtualDubMod 1.5.10.3 | www.virtualdub-fr.org || (build 2550/release)
Библиотека кодирования :VirtualDubMod build 2550/release

Видео
Идентификатор :0
Формат :MPEG-4 Visual
Профиль формата :Advanced [email protected]
Параметр BVOP формата :1
Параметр Qpel формата :No
Параметр GMC формата :0
Параметр Matrix формата :Custom
Идентификатор кодека :XVID
Продолжительность :1h 13mn 35s 760ms
Битрейт :1 278 Kbps
Ширина :688 pixels
Высота :528 pixels
Соотношение сторон :1.303
Частота кадров :25.000 fps
Глубина цвета :8 bits
Подвыборка цветности :4:2:0
Цветовое пространство :YUV
Тип развертки :Progressive
Бит/(Пиксели*Кадры) :0.141
Размер потока :673 MiB (90%)
Библиотека кодирования :XviD0065

Аудио #1
Идентификатор :1
Формат :MPEG Audio
Идентификатор кодека :55
Продолжительность :01:13:35.760
Вид битрейта :Constant
Битрейт :128 Kbps
Канал(ы) :2 channels
Частота :48.0 KHz
Метод сжатия :Lossy
Размер потока :67.4 MiB (9%)
&n
1fb801d5cca3528b1b5e554b67584202efe3b6e5Крепкий орешек (Теодор Вульфович, комедия, военный, 1967) [DVDRip, Не требуется] Крепкий орешек (Теодор Вульфович, комедия, военный, 1967) [DVDRip, Не требуется] " />

Аплоадер: Админ, дата: 9-04-2013, 18:30, торрент скачан: 359 раз

Понравилась раздача? Посмотрите эти:
  • Дни хирурга Мишкина (3 части из 3) (Вадим Зобин, драма, 1967) [DVDRip, Не т ...
  • Бой под Соколом (Александр Разумный, военный, 1942) [DVDRip, Не требуется]
  • "Мерседес" уходит от погони (Юрий Ляшенко, военный, 1980) [DVDRip, Не требу ...
  • Зимородок (Вячеслав Никифоров, военный, 1972) [DVDRip, Не требуется]
  • Путь в "Сатурн" (Виллен Азаров, военный, 1967) [DVDRip, Не требуется]
  • Конец "Сатурна" (Виллен Азаров, Мосфильм, 1967) [DVDRip, Не требуется]
  • Бабье царство (Алексей Салтыков, драма, 1967) [DVDRip, Не требуется]
  • Диверсанты / The Demolition Squad (Хайрудин Крвавац, военный, 1967) [DVDRip ...
  • Дамы и гусары (Анатолий Ниточкин, Александра Ремизова, комедия, 1976) [DVDR ...
  • Опекун (Эдгар Ходжикян, Альберт С. Мкртчян, комедия, 1970) [DVDRip, Не треб ...
  • Моя любовь (Владимир Корш-Саблин, мюзикл, мелодрама, комедия, 1940) [DVDRip ...
  • Комиссар (Александр Аскольдов, драма, военный, 1967) [DVDRip, Не требуется] ...
  • Солдат и слон (Дмитрий Кесаянц, комедия, военный, 1977) [DVDRip, Не требует ...
  • Небесный тихоход (Цветной) (Семен Тимошенко, комедия, военный, 1945) [IPTVR ...
  • Я вас любил... (Илья Фрэз, мелодрама, комедия, 1967) [DVDRip, Не требуется] ...
  • Прощайте, фараоны! (Давид Черкасский, Вячеслав Винник, комедия, 1974) [DVDR ...
  • Сказка о царе Салтане (Александр Птушко, фэнтези, семейный, 1967) [DVDRip, ...
  • Крепкий орешек (Теодор Вульфович, комедия, 1967 год) [DVDrip, оригинал]
  • Уик-энд / Week End (Жан-Люк Годар, драма, комедия, 1967) [DVDRip, Профессио ...
  • Женя, Женечка и «Катюша» (Владимир Мотыль, мелодрама, комедия, военный, 196 ...
  • Информация
    Посетители, находящиеся в группе Гости, не могут оставлять комментарии к данной публикации.