вход на сайт

Имя пользователя :
Пароль :

Восстановление пароля Регистрация
Летят журавли (Михаил Калатозов, драма, мелодрама, военный, 1957) [DVDRip, Не требуется]
Рейтинг:
(голосов: 1)



[img]{THEME}/images/logopost.png[/img]



Летят журавли

Год выпуска: 1957
Страна: СССР
Производство: Мосфильм
Жанр: драма, мелодрама, военный

Режиссёр: Михаил Калатозов
В ролях: Татьяна Самойлова, Алексей Баталов, Василий Меркурьев, Александр Шворин, Светлана Харитонова, Константин Кадочников, Валентин Зубков, Антонина Богданова, Борис Коковкин, Екатерина Куприянова

Перевод: Не требуется
Субтитры: Отсутствуют

Описание:
Фильм с удивительной эмоциональной силой рассказывает о людях, в чьи судьбы безжалостно вторглась война. Не все смогли с честью вынести это испытание… В центре киноповести — трагическая история двух влюбленных, которых война разлучила навсегда…


Дополнительно:
MediaInfo ▼Text
Общее
Полное имя :K:Летят журавлиLetyat zhuravli (1957).avi
Формат :AVI
Размер :1.37 GiB
Продолжительность :01:32:18.360
Общий поток :2 122 Kbps
Программа кодирования :VirtualDubMod 1.5.4.1 (build 2178/release)
Библиотека кодирования :VirtualDubMod build 2178/release

Видео
Идентификатор :0
Формат :MPEG-4 Visual
Параметр BVOP формата :1
Параметр Qpel формата :No
Параметр GMC формата :0
Параметр Matrix формата :Default (H.263)
Идентификатор кодека :DX50
Продолжительность :1h 32mn 18s 360ms
Битрейт :1 669 Kbps
Ширина :720 pixels
Высота :528 pixels
Соотношение сторон :1.364
Частота кадров :25.000 fps
Глубина цвета :8 bits
Подвыборка цветности :4:2:0
Цветовое пространство :YUV
Тип развертки :Progressive
Бит/(Пиксели*Кадры) :0.176
Размер потока :1.08 GiB (79%)
Библиотека кодирования :DivX503b1338p

Аудио #1
Идентификатор :1
Формат :AC-3
Формат/Информация :Audio Coding 3
Идентификатор кодека :2000
Продолжительность :01:32:02.148
Вид битрейта :Constant
Битрейт :448 Kbps
Канал(ы) :6 channels
Частота :48.0 KHz
Метод сжатия :Lossy
Размер потока :295 MiB (21%)
Язык :Russian



Тех. данные:
Качество:DVDRip
Продолжительность:&n
4e3b0722377dcde02264e4c8130d4d6b6d251117Летят журавли (Михаил Калатозов, драма, мелодрама, военный, 1957) [DVDRip, Не требуется] Летят журавли (Михаил Калатозов, драма, мелодрама, военный, 1957) [DVDRip, Не требуется] " />

Аплоадер: Админ, дата: 8-04-2013, 21:52, торрент скачан: 359 раз

Понравилась раздача? Посмотрите эти:
  • Борец и клоун (Борис Барнет, Константин Юдин, драма, спорт, 1957) [DVDRip, ...
  • Бой под Соколом (Александр Разумный, военный, 1942) [DVDRip, Не требуется]
  • Девушка без адреса (Эльдар Рязанов, мелодрама, комедия, 1957) [DVDRip, Не т ...
  • Высота (Александр Зархи, мелодрама, 1957) [DVDRip, Не требуется]
  • Человек идёт за солнцем (Михаил Калик, драма, 1961) [DVDRip, Не требуется]
  • Путевка в Жизнь (Николай Экк, драма, 1931) [DVDRip, Не требуется]
  • Прощай, шпана замоскворецкая... (Александр Панкратов, драма, мелодрама, 198 ...
  • Сапоги (Владимир Немоляев, короткометражка, драма, комедия, 1957) [DVDRip, ...
  • Баллада о солдате (Григорий Чухрай, драма, мелодрама, военный, 1959) [DVDRi ...
  • Двадцать дней без войны (Алексей Герман, драма, мелодрама, военный, 1976) [ ...
  • Разные судьбы (Леонид Луков, мелодрама, 1957) [DVDRip, Не требуется]
  • Рядом с нами (Адольф Бергункер, драма, 1957) [DVDRip, Не требуется]
  • Повесть о настоящем человеке (Александр Столпер, драма, военный, 1948) [DVD ...
  • Карусель (Михаил Швейцер, комедия, 1970) [DVDRip, Не требуется]
  • Славный малый (Борис Барнет, военный, 1943) [DVDRip, Не требуется]
  • Тихий Дон (3 части из 3) (Сергей Герасимов, драма, военный, 1957) [DVDRip, ...
  • Летят журавли (Михаил Калатозов, Драма, 1957) [DVDRip, полная реставрация & ...
  • Акулы и мелкие рыбешки / Haie und kleine Fische (Франк Висбар, драма, военн ...
  • Пэйтон Плейс / Peyton Place (Марк Робсон, драма, мелодрама, 1957) [DVDRip, ...
  • Летят журавли (Михаил Калатозов; военная драма; 1957) [DVDRip-AVC, Оригинал ...
  • Бог знает, мистер Аллисон / Heaven Knows, Mr. Allison (Джон Хьюстон, боевик ...
  • Звезда Африки / Der Stern von Afrika (Альфред Вайденманн, драма, военный, 1 ...
  • Суворов (Михаил Доллер, Всеволод Пудовкин, драма, военный, биография, истор ...
  • Мамлюк (Давит Рондели, боевик, мелодрама, приключения, военный, 1958) [DVDR ...
  • К Черному морю (Андрей Тутышкин, мелодрама, комедия, 1957) [DVDRip, Не треб ...
  • Информация
    Посетители, находящиеся в группе Гости, не могут оставлять комментарии к данной публикации.