вход на сайт

Имя пользователя :
Пароль :

Восстановление пароля Регистрация
Люди и манекены (4 части из 4) (Виктор Храмов, Аркадий Райкин, комедия, 1974) [DVDRip, Не требуется]
Рейтинг:
(голосов: 1)



[img]{THEME}/images/logopost.png[/img]



Люди и манекены (4 части из 4)

Год выпуска: 1974
Страна: СССР
Производство: ТО "Экран"
Жанр: комедия

Режиссёр: Виктор Храмов, Аркадий Райкин
В ролях: Аркадий Райкин, Ольга Малоземнова, Виктория Горшенина, Людмила Гвоздикова, Владимир Ляховицкий, Татьяна Рогозина, Александр Карпов

Перевод: Не требуется
Субтитры: Отсутствуют

Описание:
Миниатюры, интермедии и монологи в исполнении Аркадия Райкина и его труппы. В фильм вошли лучшие миниатюры из спектаклей, сыгранных Аркадием Райкиным: «Холостяк», «Маски», «Смеяться, право, не грешно», «Многоберидзе», «Париж» и многие другие.


Дополнительно:
MediaInfo ▼Text
"1 часть" ▼Общее
Полное имя :K:Люди и манекеныLud i manekeni.DVDRip1_Ludi_i_maneken.avi
Формат :AVI
Размер :768 MiB
Продолжительность :01:15:53.568
Общий поток :1 415 Kbps
Программа кодирования :VirtualDubModRus 1.5.10.2 (build 2542/release)
Библиотека кодирования :VirtualDubMod build 2542/release

Видео
Идентификатор :0
Формат :MPEG-4 Visual
Профиль формата :Advanced [email protected]
Параметр BVOP формата :2
Параметр Qpel формата :No
Параметр GMC формата :0
Параметр Matrix формата :Default (MPEG)
Идентификатор кодека :XVID
Продолжительность :1h 15mn 53s 560ms
Битрейт :1 277 Kbps
Ширина :640 pixels
Высота :480 pixels
Соотношение сторон :1.333
Частота кадров :25.000 fps
Глубина цвета :8 bits
Подвыборка цветности :4:2:0
Цветовое пространство :YUV
Тип развертки :Progressive
Бит/(Пиксели*Кадры) :0.166
Размер потока :693 MiB (90%)
Библиотека кодирования :XviD0050

Аудио #1
Идентификатор :1
Формат :MPEG Audio
Идентификатор кодека :55
Продолжительность :01:15:53.568
Вид битрейта :Constant
Битрейт :128 Kbps
Канал(ы) :2 channels
Частота :48.0 KHz
Метод сжатия :Lossy
Размер потока :69.5 MiB (9%)

"2 часть" ▼Общее
Полное имя :K:Люди и манекеныLud i manekeni.DVDRip2_Ludi_i_manekeni.avi
Формат &
6ace7500e533a828f58d45e5846c6486bbfc56c8Люди и манекены (4 части из 4) (Виктор Храмов, Аркадий Райкин, комедия, 1974) [DVDRip, Не требуется] Люди и манекены (4 части из 4) (Виктор Храмов, Аркадий Райкин, комедия, 1974) [DVDRip, Не требуется] " />

Аплоадер: Админ, дата: 8-04-2013, 21:42, торрент скачан: 359 раз

Понравилась раздача? Посмотрите эти:
  • Дни хирурга Мишкина (3 части из 3) (Вадим Зобин, драма, 1967) [DVDRip, Не т ...
  • Ошибка резидента (2 части из 2) (Вениамин Дорман, детектив, 1968) [DVDRip, ...
  • Отпуск за свой счет (2 части из 2) (Виктор Титов, мелодрама, комедия, 1981) ...
  • Мир дому твоему (2 части из 2) (Константин Райкин, Аркадий Райкин, Марк Орл ...
  • Дон Сезар де Базан (2 части из 2) (Ян Фрид, мюзикл, комедия, 1989) [DVDRip, ...
  • Три дня в Москве (2 части из 2) (Алексей Коренев, комедия, 1974) [DVDRip, Н ...
  • Операция «Трест» (4 части из 4) (Сергей Колосов, приключения, история, 1967 ...
  • Объяснение в любви (2 части из 2) (Илья Авербах, мелодрама, 1977) [DVDRip, ...
  • Карнавал (2 части из 2) (Татьяна Лиознова, мюзикл, комедия, 1981) [DVDRip, ...
  • Энергичные люди (2 части из 2) (Владимир Захаров, комедия, 1988) [DVDRip, Н ...
  • Печники (Виктор Храмов, драма, 1982) [DVDRip, Не требуется]
  • Степь (2 части из 2) (Сергей Бондарчук, драма, история, 1977) [DVDRip, Не т ...
  • Чучело (2 части из 2) (Ролан Быков, Аркадий Хайт, драма, 1983) [DVDRip, Не ...
  • У меня есть лев (2 части из 2) (Константин Бромберг, драма, комедия, приклю ...
  • Ханума (2 части из 2) (Георгий Товстоногов, мюзикл, комедия, 1978) [DVDRip, ...
  • Почти смешная история (2 части из 2) (Петр Фоменко, мелодрама, комедия, 197 ...
  • Председатель (2 части из 2) (Алексей Салтыков, драма, 1964) [DVDRip, Не тре ...
  • Тихий Дон (3 части из 3) (Сергей Герасимов, драма, военный, 1957) [DVDRip, ...
  • Подпольный обком действует (4 части из 4) (Анатолий Буковский, военный, 197 ...
  • В лесах под Ковелем (3 части из 3) (Юрий Тупицкий, военный, история, 1984) ...
  • Люди и манекены (Аркадий Райкин, Комедия, 1975 г) [DVDRip, оригинал]
  • Здравствуйте, я ваша тетя! (Виктор Титов, комедия, 1974) [DVDRip, Не требуе ...
  • Гений (2 части из 2) (Виктор Сергеев, Комедия, криминал, 1991) [DVDRip, Не ...
  • Дядюшкин сон (2 части из2) (Александр Орлов, драма, комедия, 1981) [DVDRip, ...
  • Двенадцатая ночь (Олег Табаков, Виктор Храмов, комедия, 1978) [DVDRip-AVC, ...
  • Информация
    Посетители, находящиеся в группе Гости, не могут оставлять комментарии к данной публикации.