вход на сайт

Имя пользователя :
Пароль :

Восстановление пароля Регистрация
Макар-следопыт (3 части из 3) (Николай Ковальский, семейный, 1984) [DVDRip, Не требуется]
Рейтинг:
(голосов: 1)



[img]{THEME}/images/logopost.png[/img]



Макар-следопыт (3 части из 3)

Год выпуска: 1984
Страна: СССР
Производство: Гостелерадио, Ленфильм
Жанр: семейный

Режиссёр: Николай Ковальский
В ролях: Максим Минин, Сергей Саватеев, Ангелина Полянчукова, Александр Леньков, Андрей Ростоцкий, Иван Краско, Владимир Этуш, Олег Борисов, Александр Липов, Алексей Горбунов

Перевод: Не требуется
Субтитры: Отсутствуют

Описание:
Юные герои фильма, подростки, переживают множество увлекательных и опасных приключений, активно участвуя в событиях гражданской войны…


Дополнительно:
MediaInfo ▼Text
"1 часть" ▼Общее
Полное имя :L:Макар-следопытMakar-SledopitMakar.Sledopit.(1.seriya.iz.3).avi
Формат :AVI
Размер :933 MiB
Продолжительность :01:03:37.440
Общий поток :2 050 Kbps
Библиотека кодирования :VirtualDub build 30009/release

Видео
Идентификатор :0
Формат :MPEG-4 Visual
Параметр BVOP формата :1
Параметр Qpel формата :No
Параметр GMC формата :0
Параметр Matrix формата :Default (H.263)
Идентификатор кодека :DX50
Продолжительность :1h 3mn 37s 440ms
Битрейт :1 848 Kbps
Ширина :688 pixels
Высота :512 pixels
Соотношение сторон :1.344
Частота кадров :25.000 fps
Глубина цвета :8 bits
Подвыборка цветности :4:2:0
Цветовое пространство :YUV
Тип развертки :Progressive
Бит/(Пиксели*Кадры) :0.210
Размер потока :841 MiB (90%)
Библиотека кодирования :DivX503b2816p

Аудио #1
Идентификатор :1
Формат :AC-3
Формат/Информация :Audio Coding 3
Идентификатор кодека :2000
Продолжительность :01:03:37.440
Вид битрейта :Constant
Битрейт :192 Kbps
Канал(ы) :2 channels
Расположение каналов :Front: L R
Частота :48.0 KHz
Битовая глубина :16 bits
Метод сжатия :Lossy
Размер потока :87.4 MiB (9%)

"2 часть" ▼Общее
Полное имя :L:Макар-следопытMakar-SledopitMakar.Sledopit.(2.seriya.iz.3).avi
Формат &n
0c98d3d0b5edcdfc5ad9ce4c557c0ffa03e9ca65Макар-следопыт (3 части из 3) (Николай Ковальский, семейный, 1984) [DVDRip, Не требуется] Макар-следопыт (3 части из 3) (Николай Ковальский, семейный, 1984) [DVDRip, Не требуется] " />

Аплоадер: Админ, дата: 8-04-2013, 21:39, торрент скачан: 359 раз

Понравилась раздача? Посмотрите эти:
  • Ошибка резидента (2 части из 2) (Вениамин Дорман, детектив, 1968) [DVDRip, ...
  • Судьба резидента (2 части из 2) (Вениамин Дорман, детектив, приключения, 19 ...
  • Возвращение резидента (2 части из 2) (Вениамин Дорман, триллер, 1982) [DVDR ...
  • Месье Ленуар, который... (2 части из 2) (Александр Орлов, телеспектакль, др ...
  • Достояние республики (2 части из 2) (Владимир Бычков, Студия Горького, 1971 ...
  • Двенадцать месяцев (2 части из 2) (Анатолий Граник, фэнтези, семейный, 1972 ...
  • Челюскинцы (2 части из 2) (Михаил Ершов, приключения, 1984) [TVRip, Не треб ...
  • Степь (2 части из 2) (Сергей Бондарчук, драма, история, 1977) [DVDRip, Не т ...
  • Макар - следопыт (Николай Ковальский, приключения, детский, 1984) [DVDRip] ...
  • Слушать в отсеках (2 части из 2) (Николай Засеев-Руденко, приключения, 1985 ...
  • Председатель (2 части из 2) (Алексей Салтыков, драма, 1964) [DVDRip, Не тре ...
  • Тихий Дон (3 части из 3) (Сергей Герасимов, драма, военный, 1957) [DVDRip, ...
  • Умные вещи (2 части из 2) (Анатолий Граник, детский, семейный, 1973) [DVDRi ...
  • Рок-н-ролл для принцесс (2 части из 2) (Радомир Василевский, Комедия, семей ...
  • Подпольный обком действует (4 части из 4) (Анатолий Буковский, военный, 197 ...
  • В лесах под Ковелем (3 части из 3) (Юрий Тупицкий, военный, история, 1984) ...
  • Дядюшкин сон (2 части из2) (Александр Орлов, драма, комедия, 1981) [DVDRip, ...
  • Зверобой (2 части из 2) (Андрей Ростоцкий, приключения, 1990) [DVDRip, Не т ...
  • Неизвестный солдат (3 части из 3) (Григорий Аронов, Вадим Зобин, драма, 198 ...
  • Каникулы Петрова и Васечкина, обыкновенные и невероятные (2 части из 2) (Вл ...
  • Информация
    Посетители, находящиеся в группе Гости, не могут оставлять комментарии к данной публикации.