вход на сайт

Имя пользователя :
Пароль :

Восстановление пароля Регистрация
Медовый месяц (Надежда Кошеверова, мелодрама, комедия, 1956) [DVDRip, Не требуется]
Рейтинг:
(голосов: 1)



[img]{THEME}/images/logopost.png[/img]



Медовый месяц

Год выпуска: 1956
Страна: СССР
Производство: Ленфильм
Жанр: мелодрама, комедия

Режиссёр: Надежда Кошеверова
В ролях: Людмила Касаткина, Павел Кадочников, Татьяна Панкова, Павел Суханов, Зоя Фёдорова, Анатолий Абрамов, Сергей Филиппов, Кирилл Лавров, Петр Лобанов, Людмила Люлько

Перевод: Не требуется
Субтитры: Отсутствуют

Описание:
Выпускница медицинского института Людочка Одинцова «выскакивает» замуж за инженера Алексея Рыбальченко для того, чтобы после распределения остаться в Ленинграде. Но неожиданно, Алексей дает согласие на работу в Сибири, и бедной Людочке пришлось последовать за мужем на сибирскую стройку и начать свою трудовую деятельность врачом в крохотном медпункте рабочего поселка…


Дополнительно:
MediaInfo ▼Text
Общее
Полное имя :K:Медовый месяцМедовый месяц.avi
Формат :AVI
Размер :1.42 GiB
Продолжительность :01:27:40.128
Общий поток :2 323 Kbps
Программа кодирования :VirtualDubMod 1.5.10.2 (build 2542/release)
Библиотека кодирования :VirtualDubMod build 2542/release

Видео
Идентификатор :0
Формат :MPEG-4 Visual
Параметр BVOP формата :1
Параметр Qpel формата :No
Параметр GMC формата :0
Параметр Matrix формата :Default (H.263)
Идентификатор кодека :DX50
Продолжительность :1h 27mn 40s 120ms
Битрейт :2 201 Kbps
Ширина :704 pixels
Высота :568 pixels
Соотношение сторон :1.239
Частота кадров :25.000 fps
Глубина цвета :8 bits
Подвыборка цветности :4:2:0
Цветовое пространство :YUV
Тип развертки :Progressive
Бит/(Пиксели*Кадры) :0.220
Размер потока :1.35 GiB (95%)
Библиотека кодирования :DivX503b2510p

Аудио #1
Идентификатор :1
Формат :MPEG Audio
Идентификатор кодека :55
Продолжительность :01:27:40.128
Вид битрейта :Constant
Битрейт :112 Kbps
Канал(ы) :1 channel
Частота :48.0 KHz
Метод сжатия :Lossy
Размер потока :70.2 MiB (5%)



Тех. данные:
Качество:DVDRip
Продолжительность:01:27:48 час

Формат: AVI
Видео кодек: DivX
Аудио кодек: MPA
9c294463202aa7d0b12d77a8a84f58ca407f09c7Медовый месяц (Надежда Кошеверова, мелодрама, комедия, 1956) [DVDRip, Не требуется] Медовый месяц (Надежда Кошеверова, мелодрама, комедия, 1956) [DVDRip, Не требуется] " />

Аплоадер: Админ, дата: 8-04-2013, 21:01, торрент скачан: 359 раз

Понравилась раздача? Посмотрите эти:
  • На подмостках сцены (Константин Юдин, драма, комедия, 1956) [DVDRip, Не тре ...
  • Девушка без адреса (Эльдар Рязанов, мелодрама, комедия, 1957) [DVDRip, Не т ...
  • Выйти замуж за капитана (Виталий Мельников, мелодрама, комедия, 1985) [DVDR ...
  • Шанс (Александр Майоров, фантастика, фэнтези, мелодрама, комедия, приключен ...
  • По главной улице с оркестром (Петр Тодоровский, мюзикл, мелодрама, комедия, ...
  • И вот пришел Бумбо... (Надежда Кошеверова, В. Апананский, Н. Окунцова, семе ...
  • Ослиная шкура (Надежда Кошеверова, фэнтези, мелодрама, комедия, семейный, 1 ...
  • Укротительница тигров (Александр Ивановский, Надежда Кошеверова, мелодрама, ...
  • Царевич Проша (Надежда Кошеверова, фэнтези, семейный, 1947) [DVDRip, Не тре ...
  • Как Иванушка-дурачок за чудом ходил (Надежда Кошеверова, фэнтези, семейный, ...
  • Тень (Реставрация) (Надежда Кошеверова, фэнтези, драма, мелодрама, комедия, ...
  • Сегодня – новый аттракцион (Надежда Кошеверова, Аполлинарий Дудко, комедия, ...
  • Старая, старая сказка (Надежда Кошеверова, фэнтези, семейный, 1968) [DVDRip ...
  • Соловей (Надежда Кошеверова, мюзикл, семейный, 1979) [DVDRip, Не требуется] ...
  • Старомодная комедия (Эра Савельева, Татьяна Березанцева, мелодрама, 1978) [ ...
  • Хозяйка гостиницы (Михаил Названов, комедия, 1956) [DVDRip, Не требуется]
  • Драгоценный подарок (Александр Роу, семейный, 1956) [DVDRip, Не требуется]
  • Шофер поневоле (Надежда Кошеверова, комедия, 1958) [DVDRip, Не требуется]
  • Каин XVIII (Надежда Кошеверова, Михаил Шапиро, фэнтези, мелодрама, приключе ...
  • В добрый час! (Виктор Эйсымонт, драма, мелодрама, 1956) [DVDRip, Не требует ...
  • Информация
    Посетители, находящиеся в группе Гости, не могут оставлять комментарии к данной публикации.