вход на сайт

Имя пользователя :
Пароль :

Восстановление пароля Регистрация
Меж высоких хлебов (Леонид Миллионщиков, комедия, 1970) [DVDRip, Не требуется]
Рейтинг:
(голосов: 1)



[img]{THEME}/images/logopost.png[/img]



Меж высоких хлебов

Год выпуска: 1970
Страна: СССР
Производство: Одесская киностудия
Жанр: комедия

Режиссёр: Леонид Миллионщиков
В ролях: Евгений Леонов, Зинаида Дехтярева, Маргарита Криницына, Галина Микеладзе, Лев Прыгунов, Генрих Осташевский, Иван Симоненко, Дмитрий Капка, Елена Коваленко, Владимир Васильев

Перевод: Не требуется
Субтитры: Отсутствуют

Описание:
Деревенский конюх Стручок — человек душевный, отзывчивый. Из — за своей слабохарактерности он не может отказаться от угощений, которыми люди пытаются отблагодарить его за услуги. Из — за любви к выпивке Стручок часто попадает в смешные, а иногда и в печальные ситуации.


Дополнительно:
MediaInfo ▼Text
Общее
Полное имя :J:Меж высоких хлебовMezh vysokih hlebov.avi
Формат :AVI
Размер :700 MiB
Продолжительность :01:16:06.920
Общий поток :1 286 Kbps

Видео
Идентификатор :0
Формат :MPEG-4 Visual
Профиль формата :Advanced [email protected]
Параметр BVOP формата :1
Параметр Qpel формата :No
Параметр GMC формата :0
Параметр Matrix формата :Custom
Идентификатор кодека :XVID
Продолжительность :1h 16mn 6s 920ms
Битрейт :1 148 Kbps
Ширина :640 pixels
Высота :336 pixels
Соотношение сторон :1.905
Частота кадров :25.000 fps
Глубина цвета :8 bits
Подвыборка цветности :4:2:0
Цветовое пространство :YUV
Тип развертки :Progressive
Бит/(Пиксели*Кадры) :0.214
Размер потока :625 MiB (89%)
Библиотека кодирования :XviD0046

Аудио #1
Идентификатор :1
Формат :MPEG Audio
Идентификатор кодека :55
Продолжительность :01:16:06.912
Вид битрейта :Constant
Битрейт :128 Kbps
Канал(ы) :2 channels
Частота :48.0 KHz
Метод сжатия :Lossy
Размер потока :69.7 MiB (10%)
Язык : c



Тех. данные:
Качество:DVDRip
Продолжительность:01:16:00 час

Формат: AVI
Видео кодек: XviD
Аудио кодек: MPA1L3
Видео: 640 x 336 (1.905), 25.000 fps, 1 148 Kbps, 0.214 bit/pixel
Аудио :
4bd94da6761422388f811813853c04c3b1bba1e1Меж высоких хлебов (Леонид Миллионщиков, комедия, 1970) [DVDRip, Не требуется] Меж высоких хлебов (Леонид Миллионщиков, комедия, 1970) [DVDRip, Не требуется] " />

Аплоадер: Админ, дата: 7-04-2013, 22:34, торрент скачан: 359 раз

Понравилась раздача? Посмотрите эти:
  • Вас вызывает Таймыр (Алексей Коренев, комедия, 1970) [DVDRip, Не требуется] ...
  • Божья тварь (Галина Данелия-Юркова, комедия, 1991) [DVDRip, Не требуется]
  • Начало (Глеб Панфилов, мелодрама, комедия, 1970) [DVDRip, Не требуется]
  • Два дня чудес (Лев Мирский, комедия, 1970) [DVDRip, Не требуется]
  • Афоня (Георгий Данелия, драма, мелодрама, комедия, 1975) [DVDRip, Не требуе ...
  • Захар Беркут (Леонид Осыка, драма, история, 1972) [DVDRip, Не требуется]
  • Опекун (Эдгар Ходжикян, Альберт С. Мкртчян, комедия, 1970) [DVDRip, Не треб ...
  • Опасно для жизни! (Леонид Гайдай, комедия, 1985) [DVDRip, Не требуется]
  • Левша (Сергей Овчаров, драма, комедия, 1986) [DVDRip, Не требуется]
  • Пес Барбос и необычный кросс / Самогонщики / «Сто грамм» для храбрости (Лео ...
  • Чудный характер (Константин Воинов, драма, 1970) [DVDRip, Не требуется]
  • Карусель (Михаил Швейцер, комедия, 1970) [DVDRip, Не требуется]
  • Совершенно серьезно (Леонид Гайдай, Эльдар Рязанов, Владимир Семаков, коме ...
  • Спортлото-82 (Леонид Гайдай, комедия, приключения, 1982) [DVDRip, Не требуе ...
  • Суета сует (Алла Сурикова, комедия, 1979) [DVDRip, Не требуется]
  • Приключения желтого чемоданчика (Илья Фрэз, комедия, семейный, 1970) [DVDRi ...
  • Деловые люди (полная реставрация) (Леонид Гайдай, комедия, драма, 1962) [DV ...
  • Меж высоких хлебов (Леонид Миллионщиков, комедия, 1970) [DVDRip, не требует ...
  • Живите в радости (Леонид Миллионщиков, комедия, 1978) [DVDRip, Не требуется ...
  • Голубая стрела (Леонид Эстрин, боевик, 1958) [DVDRip, Не требуется]
  • Информация
    Посетители, находящиеся в группе Гости, не могут оставлять комментарии к данной публикации.