вход на сайт

Имя пользователя :
Пароль :

Восстановление пароля Регистрация
Месье Ленуар, который... (2 части из 2) (Александр Орлов, телеспектакль, драма, 1983) [DVDRip, Не требуется]
Рейтинг:
(голосов: 1)



[img]{THEME}/images/logopost.png[/img]



Месье Ленуар, который... (2 части из 2)

Год выпуска: 1983
Страна: СССР
Производство: ГРЛДП ЦТ (Из собрания Госфильмофонда)
Жанр: телеспектакль, драма

Режиссёр: Александр Орлов
В ролях: Владимир Этуш, Вениамин Смехов, Сергей Юрский, Валентин Гафт, Алла Казанская, Светлана Немоляева, Раиса Этуш, Анатолий Егоров, Екатерина Мазова, Авангард Леонтьев, Леонид Каневский, Алла Будницкая

Перевод: Не требуется
Субтитры: Отсутствуют

Описание:
По мотивам пьесы французского писателя А. Салакру "Архипелаг Ленуар".

Глава фирмы, почетный месье Ленуар, преступил закон. Перед ужасом огласки преступления все члены семейства отступаются от своего отца и деда

Данные о рейтинге отсутствуют

Дополнительно:
MediaInfo ▼Text
"1 часть" ▼Общее
Полное имя :J:Месье Ленуар, которыйMes`e Lenuar1_Mes`e_Lenuar_DVDRip_1.36GB.avi
Формат :AVI
Размер :650 MiB
Продолжительность :01:10:21.680
Общий поток :1 291 Kbps
Программа кодирования :VirtualDubModRus 1.5.10.2 (build 2542/release)
Библиотека кодирования :VirtualDubMod build 2542/release

Видео
Идентификатор :0
Формат :MPEG-4 Visual
Параметр BVOP формата :1
Параметр Qpel формата :No
Параметр GMC формата :0
Параметр Matrix формата :Default (H.263)
Идентификатор кодека :DX50
Продолжительность :1h 10mn 21s 680ms
Битрейт :1 153 Kbps
Ширина :640 pixels
Высота :480 pixels
Соотношение сторон :1.333
Частота кадров :25.000 fps
Глубина цвета :8 bits
Подвыборка цветности :4:2:0
Цветовое пространство :YUV
Тип развертки :Progressive
Бит/(Пиксели*Кадры) :0.150
Размер потока :580 MiB (89%)
Библиотека кодирования :DivX503b2676p

Аудио #1
Идентификатор :1
Формат :MPEG Audio
Идентификатор кодека :55
Продолжительность :01:10:21.672
Вид битрейта :Constant
Битрейт :128 Kbps
Канал(ы) :2 channels
Частота :48.0 KHz
Метод сжатия :Lossy
Размер потока :64.4 MiB (10%)

"2 часть" ▼Общее
Полное имя :J:Месье Ленуар, которыйMes`e L
7936e543ae8b6509b42ec3bc6b4b25d6bd963c2cМесье Ленуар, который... (2 части из 2) (Александр Орлов, телеспектакль, драма, 1983) [DVDRip, Не требуется] Месье Ленуар, который... (2 части из 2) (Александр Орлов, телеспектакль, драма, 1983) [DVDRip, Не требуется] " />

Аплоадер: Админ, дата: 7-04-2013, 22:32, торрент скачан: 359 раз

Понравилась раздача? Посмотрите эти:
  • Дни хирурга Мишкина (3 части из 3) (Вадим Зобин, драма, 1967) [DVDRip, Не т ...
  • Будни и праздники Серафимы Глюкиной (2 части из 2) (Ростислав Горяев, драма ...
  • Ошибка резидента (2 части из 2) (Вениамин Дорман, детектив, 1968) [DVDRip, ...
  • Возвращение резидента (2 части из 2) (Вениамин Дорман, триллер, 1982) [DVDR ...
  • Конец операции «Резидент» (2 части из 2) (Вениамин Дорман, боевик, приключе ...
  • Мир дому твоему (2 части из 2) (Константин Райкин, Аркадий Райкин, Марк Орл ...
  • Люди и манекены (4 части из 4) (Виктор Храмов, Аркадий Райкин, комедия, 197 ...
  • Вся королевская рать (3 части из 3) (Наум Ардашников, Александр Гуткович, д ...
  • Карнавал (2 части из 2) (Татьяна Лиознова, мюзикл, комедия, 1981) [DVDRip, ...
  • Степь (2 части из 2) (Сергей Бондарчук, драма, история, 1977) [DVDRip, Не т ...
  • Чучело (2 части из 2) (Ролан Быков, Аркадий Хайт, драма, 1983) [DVDRip, Не ...
  • Тайна Эдвина Друда (4 части из 4) (Александр Орлов, драма, 1980) [DVDRip, Н ...
  • Раннее, раннее утро... (3 части из 3) (Валерий Харченко, семейный, 1983) [T ...
  • Почти смешная история (2 части из 2) (Петр Фоменко, мелодрама, комедия, 197 ...
  • Председатель (2 части из 2) (Алексей Салтыков, драма, 1964) [DVDRip, Не тре ...
  • Тихий Дон (3 части из 3) (Сергей Герасимов, драма, военный, 1957) [DVDRip, ...
  • Подпольный обком действует (4 части из 4) (Анатолий Буковский, военный, 197 ...
  • В лесах под Ковелем (3 части из 3) (Юрий Тупицкий, военный, история, 1984) ...
  • Гений (2 части из 2) (Виктор Сергеев, Комедия, криминал, 1991) [DVDRip, Не ...
  • Дядюшкин сон (2 части из2) (Александр Орлов, драма, комедия, 1981) [DVDRip, ...
  • Информация
    Посетители, находящиеся в группе Гости, не могут оставлять комментарии к данной публикации.