вход на сайт

Имя пользователя :
Пароль :

Восстановление пароля Регистрация
Мир дому твоему (2 части из 2) (Константин Райкин, Аркадий Райкин, Марк Орлов, комедия, 1987) [DVDRip, Не требуется]
Рейтинг:
(голосов: 1)



[img]{THEME}/images/logopost.png[/img]



Мир дому твоему (2 части из 2)

Год выпуска: 1987
Страна: СССР
Производство: ТО Экран
Жанр: комедия

Режиссёр: Константин Райкин, Аркадий Райкин, Марк Орлов
В ролях: Константин Райкин, Аркадий Райкин, Владимир Большов, Сергей Зарубин, Елена Бутенко, Наталья Аитова

Перевод: Не требуется
Субтитры: Отсутствуют

Описание:
Монологи и интермедии с участием выдающегося актера, мастера перевоплощения Аркадия Райкина и других артистов театра «Сатирикон».
Данных о фильме на www.imdb.com "Режиссёр: Константин Райкин" нет.

Дополнительно:
MediaInfo ▼Text
"1 часть" ▼Общее
Полное имя :K:Мир дому твоемуMir domu tvoemu�1.avi
Формат :AVI
Размер :811 MiB
Продолжительность :01:26:30.280
Общий поток :1 310 Kbps
Программа кодирования :VirtualDubModRus 1.5.10.2 (build 2542/release)
Библиотека кодирования :VirtualDubMod build 2542/release

Видео
Идентификатор :0
Формат :MPEG-4 Visual
Параметр BVOP формата :1
Параметр Qpel формата :No
Параметр GMC формата :0
Параметр Matrix формата :Default (H.263)
Идентификатор кодека :DX50
Продолжительность :1h 26mn 30s 280ms
Битрейт :1 173 Kbps
Ширина :640 pixels
Высота :480 pixels
Соотношение сторон :1.333
Частота кадров :25.000 fps
Глубина цвета :8 bits
Подвыборка цветности :4:2:0
Цветовое пространство :YUV
Тип развертки :Progressive
Бит/(Пиксели*Кадры) :0.153
Размер потока :726 MiB (89%)
Библиотека кодирования :DivX503b2676p

Аудио #1
Идентификатор :1
Формат :MPEG Audio
Идентификатор кодека :55
Продолжительность :01:26:30.144
Вид битрейта :Constant
Битрейт :128 Kbps
Канал(ы) :2 channels
Частота :48.0 KHz
Метод сжатия :Lossy
Размер потока :79.2 MiB (10%)

"2 часть" ▼Общее
Полное имя :K:2. РАЗДАЧАМир дому твоемуMir domu tvoemu�2.avi
Формат :AVI
Размер :687
6d8a70b2f02f47a7c5efb082af566fba9b318789Мир дому твоему (2 части из 2) (Константин Райкин, Аркадий Райкин, Марк Орлов, комедия, 1987) [DVDRip, Не требуется] Мир дому твоему (2 части из 2) (Константин Райкин, Аркадий Райкин, Марк Орлов, комедия, 1987) [DVDRip, Не требуется] " />

Аплоадер: Админ, дата: 7-04-2013, 22:30, торрент скачан: 359 раз

Понравилась раздача? Посмотрите эти:
  • Дни хирурга Мишкина (3 части из 3) (Вадим Зобин, драма, 1967) [DVDRip, Не т ...
  • Месье Ленуар, который... (2 части из 2) (Александр Орлов, телеспектакль, др ...
  • Люди и манекены (4 части из 4) (Виктор Храмов, Аркадий Райкин, комедия, 197 ...
  • Дон Сезар де Базан (2 части из 2) (Ян Фрид, мюзикл, комедия, 1989) [DVDRip, ...
  • Волшебная сила (Наум Бирман, мюзикл, комедия, семейный, 1970) [DVDRip, Не т ...
  • Двенадцать месяцев (2 части из 2) (Анатолий Граник, фэнтези, семейный, 1972 ...
  • Мы с вами где-то встречались (Николай Досталь, Аркадий Райкин, комедия, 195 ...
  • Мы с вами где-то встречались (Николай Досталь, Андрей Тутышкин, комедия, 19 ...
  • Взятки гладки (2 части из 2) (Игорь Масленников, Комедия, 2008) [DVDRip, Не ...
  • Степь (2 части из 2) (Сергей Бондарчук, драма, история, 1977) [DVDRip, Не т ...
  • Чучело (2 части из 2) (Ролан Быков, Аркадий Хайт, драма, 1983) [DVDRip, Не ...
  • У меня есть лев (2 части из 2) (Константин Бромберг, драма, комедия, приклю ...
  • Ревизор (2 части из 2) (Евгений Весник, Марк Орлов, Юрий Соломин, комедия, ...
  • Сибириада (4 части из 4) (Андрей Кончаловский, драма, военный, история, 197 ...
  • Тихий Дон (3 части из 3) (Сергей Герасимов, драма, военный, 1957) [DVDRip, ...
  • Люди и манекены (Аркадий Райкин, Комедия, 1975 г) [DVDRip, оригинал]
  • Аркадий Райкин (Коллекционный сборник -1980) [mp3,128 кбит/с]
  • Аркадий Райкин. От 2-х до 50-ти (Сатира, юмор) [MP3, 320 Кбит/с/ CBR]
  • Гений (2 части из 2) (Виктор Сергеев, Комедия, криминал, 1991) [DVDRip, Не ...
  • Дядюшкин сон (2 части из2) (Александр Орлов, драма, комедия, 1981) [DVDRip, ...
  • Информация
    Посетители, находящиеся в группе Гости, не могут оставлять комментарии к данной публикации.