вход на сайт

Имя пользователя :
Пароль :

Восстановление пароля Регистрация
Мужики!.. (Искра Бабич, драма, 1981) [DVDRip, Не требуется]
Рейтинг:
(голосов: 1)



[img]{THEME}/images/logopost.png[/img]



Мужики!..

Год выпуска: 1981
Страна: СССР
Производство: Мосфильм
Жанр: драма

Режиссёр: Искра Бабич
В ролях: Александр Михайлов, Ирина Иванова, Петр Глебов, Вера Альховская, Михаил Бузылёв-Крэцо, Александр Павлов, Анатолий Солоницын, Мария Андрианова, Светлана Тормахова, Леонард Варфоломеев

Перевод: Не требуется
Субтитры: Отсутствуют

Описание:
Узнав о том, что умерла его бывшая невеста, шахтер Павел Зубов приезжает в родное село. У него на руках оказываются оставшиеся сиротами трое детей. Старшая дочь — его, Павла. Осознание ответственности перед нею приводит Павла к мужественному решению: он становится отцом всем троим детям.


Дополнительно:
MediaInfo ▼Text
Общее
Полное имя :K:Мужики!Muzhiki.1981.avi
Формат :AVI
Размер :1.45 GiB
Продолжительность :01:32:11.640
Общий поток :2 259 Kbps
Программа кодирования :VirtualDubMod 1.5.10.2 (build 2540/release)

Видео
Идентификатор :0
Формат :MPEG-4 Visual
Профиль формата :Advanced [email protected]
Параметр BVOP формата :2
Параметр Qpel формата :No
Параметр GMC формата :0
Параметр Matrix формата :Custom
Идентификатор кодека :XVID
Продолжительность :1h 32mn 11s 640ms
Битрейт :2 057 Kbps
Ширина :640 pixels
Высота :496 pixels
Соотношение сторон :1.290
Частота кадров :25.000 fps
Глубина цвета :8 bits
Подвыборка цветности :4:2:0
Цветовое пространство :YUV
Тип развертки :Progressive
Бит/(Пиксели*Кадры) :0.259
Размер потока :1.32 GiB (91%)
Библиотека кодирования :XviD0056

Аудио #1
Идентификатор :1
Формат :AC-3
Формат/Информация :Audio Coding 3
Идентификатор кодека :2000
Продолжительность :01:32:11.616
Вид битрейта :Constant
Битрейт :192 Kbps
Канал(ы) :2 channels
Расположение каналов :Front: L R
Частота :48.0 KHz
Битовая глубина :16 bits
Метод сжатия :Lossy
Размер потока :127 MiB (9%)



Тех. данные:
Качество:DVDRip
Продол
a7f9f9984ad0f47ca6369047f076616ca6cdbeb0Мужики!.. (Искра Бабич, драма, 1981) [DVDRip, Не требуется] Мужики!.. (Искра Бабич, драма, 1981) [DVDRip, Не требуется] " />

Аплоадер: Админ, дата: 7-04-2013, 22:22, торрент скачан: 359 раз

Понравилась раздача? Посмотрите эти:
  • Василий и Василиса (Ирина Поплавская, драма, мелодрама, биография, 1981) [D ...
  • Колесо истории (Станислав Клименко, драма, 1981) [DVDRip, Не требуется]
  • 34-й скорый (Андрей Малюков, боевик, драма, 1981) [DVDRip, Не требуется]
  • Агония (2 части из 2) (Элем Климов, драма, биография, история, 1981) [DVDRi ...
  • Эзоп (Олег Рябоконь, драма, история, 1981) [DVDRip, Не требуется]
  • Цыганское счастье (Сергей Никоненко, драма, 1981) [DVDRip, Не требуется]
  • Старшина (Николай Кошелев, драма, 1979) [DVDRip, Не требуется]
  • Путевка в Жизнь (Николай Экк, драма, 1931) [DVDRip, Не требуется]
  • Всё наоборот (Виталий Фетисов, Владимир Грамматиков, мелодрама, комедия, 19 ...
  • Опасный возраст (Александр Прошкин, драма, 1981) [DVDRip, Не требуется]
  • Комиссар (Александр Аскольдов, драма, военный, 1967) [DVDRip, Не требуется] ...
  • Карнавал (2 части из 2) (Татьяна Лиознова, мюзикл, комедия, 1981) [DVDRip, ...
  • Мужики! (Искра Бабич, Драма, 1981) [DVDRip, Оригинал]
  • Мульт-Салют. 23 ч. из 30: Приключения Васи Куролесова/Приключения пингвинен ...
  • Печники (Виктор Храмов, драма, 1982) [DVDRip, Не требуется]
  • Куда он денется! (Георгий Юнгвальд-Хилькевич, комедия, 1981) [DVDRip, Не тр ...
  • Проданный смех (2 части из 2) (Леонид Нечаев, мюзикл, фэнтези, приключения, ...
  • Мужики!.. (Искра Бабич, Драма, 1981) [DVDRip, Не требуется (Оригинал)]
  • Пещерный человек / Caveman (Карл Готтлиб, Комедия, 1981) [HDTVRip, Не требу ...
  • Дядюшкин сон (2 части из2) (Александр Орлов, драма, комедия, 1981) [DVDRip, ...
  • Информация
    Посетители, находящиеся в группе Гости, не могут оставлять комментарии к данной публикации.