вход на сайт

Имя пользователя :
Пароль :

Восстановление пароля Регистрация
Нейтральные воды (Владимир Беренштейн, драма, 1968) [DVDRip, Не требуется]
Рейтинг:
(голосов: 1)



[img]{THEME}/images/logopost.png[/img]



Нейтральные воды

Год выпуска: 1968
Страна: СССР
Производство: Студия Горького
Жанр: драма

Режиссёр: Владимир Беренштейн
В ролях: Владимир Четвериков, Геннадий Карнович Валуа, Кирилл Лавров, Нина Попова, Владимир Самойлов, Алексей Панькин, Антонина Дмитриева, Михаил Янушкевич, Леонид Князев, Антонина Пилюс

Перевод: Не требуется
Субтитры: Отсутствуют

Описание:
О героическом подвиге экипажа крейсера «Горделивый», благополучно выполнившем задание советского командования по пресечению провокаций в нейтральных водах.


Дополнительно:
MediaInfo ▼Text
Общее
Полное имя :K:Нейтральные водыNeytral`nie vody.DVDRip.avi
Формат :AVI
Размер :1.37 GiB
Продолжительность :01:40:30.640
Общий поток :1 947 Kbps
Программа кодирования :VirtualDubModRus 1.5.10.2 (build 2542/release)
Библиотека кодирования :VirtualDubMod build 2542/release

Видео
Идентификатор :0
Формат :MPEG-4 Visual
Параметр BVOP формата :Yes
Параметр Qpel формата :No
Параметр GMC формата :0
Параметр Matrix формата :Default (H.263)
Идентификатор кодека :DX50
Продолжительность :1h 40mn 30s 640ms
Битрейт :1 745 Kbps
Ширина :704 pixels
Высота :352 pixels
Соотношение сторон :2.000
Частота кадров :25.000 fps
Глубина цвета :8 bits
Подвыборка цветности :4:2:0
Цветовое пространство :YUV
Тип развертки :Progressive
Бит/(Пиксели*Кадры) :0.282
Размер потока :1.23 GiB (90%)
Библиотека кодирования :DivX503b2676p

Аудио #1
Идентификатор :1
Формат :AC-3
Формат/Информация :Audio Coding 3
Идентификатор кодека :2000
Продолжительность :01:40:30.528
Вид битрейта :Constant
Битрейт :192 Kbps
Канал(ы) :2 channels
Расположение каналов :Front: L R
Частота :48.0 KHz
Битовая глубина :16 bits
Метод сжатия :Lossy
Размер потока :138 MiB (10%)



Тех. данные:
Качество:DVDRip
Продолжительность:01:40:30 час

Формат: AVI
Видео ко
f00ed5f01c9876b1117163e89490a213a58eafedНейтральные воды (Владимир Беренштейн, драма, 1968) [DVDRip, Не требуется] Нейтральные воды (Владимир Беренштейн, драма, 1968) [DVDRip, Не требуется] " />

Аплоадер: Админ, дата: 7-04-2013, 20:43, торрент скачан: 359 раз

Понравилась раздача? Посмотрите эти:
  • Журавушка (Николай Москаленко, драма, мелодрама, 1968) [DVDRip, Не требуетс ...
  • В огне брода нет (Глеб Панфилов, драма, военный, 1968) [DVDRip, Не требуетс ...
  • Ошибка резидента (2 части из 2) (Вениамин Дорман, детектив, 1968) [DVDRip, ...
  • Дикая собака Динго (Юлий Карасик, драма, 1962) [DVDRip, Не требуется]
  • Дама с собачкой (Иосиф Хейфиц, драма, мелодрама, 1959) [DVDRip, Не требуетс ...
  • Хозяин тайги (Владимир Назаров, криминал, 1968) [DVDRip, Не требуется]
  • Путь в "Сатурн" (Виллен Азаров, военный, 1967) [DVDRip, Не требуется]
  • Конец "Сатурна" (Виллен Азаров, Мосфильм, 1967) [DVDRip, Не требуется]
  • Последняя жертва (Петр Тодоровский, драма, мелодрама, 1975) [DVDRip, Не тре ...
  • Пакет (Владимир Назаров, комедия, приключения, семейный, 1965) [DVDRip, Не ...
  • На графских развалинах (Владимир Скуйбин, приключения, семейный, 1957) [DVD ...
  • Лес (Владимир Мотыль, драма, 1980) [DVDRip, Не требуется]
  • Капитанская дочка (Владимир Каплуновский, драма, 1958) [DVDRip, Не требуетс ...
  • Порожний рейс (Владимир Венгеров, драма, 1962) [DVDRip, Не требуется]
  • Ты и я (Лариса Шепитько, драма, 1971) [DVDRip, Не требуется]
  • Чайка (Юлий Карасик, драма, 1972) [DVDRip, Не требуется]
  • Сказы Уральских гор (Ольгерд Воронцов, документальный, биография, 1968) [DV ...
  • Сотрудник ЧК (Борис Волчек, боевик, история, 1963) [DVDRip, Не требуется]
  • Донская повесть (Владимир Фетин, драма, 1964) [DVDRip, Не требуется]
  • Чудак-человек (Владимир Кочетов, комедия, 1962) [DVDRip, Не требуется]
  • Голубая стрела (Леонид Эстрин, боевик, 1958) [DVDRip, Не требуется]
  • Р.В.С. (Алексей Мороз, военный, 1977) [DVDRip, (2х)Оригинал (русский)]
  • Вера, надежда, любовь (Владимир Грамматиков, приключения, 1984) [DVDRip, Не ...
  • Кутузов (Владимир Петров, драма, 1943) [DVDRip, Не требуется]
  • Мексиканец (Владимир Каплуновский, драма, 1955) [DVDRip, Не требуется]
  • Информация
    Посетители, находящиеся в группе Гости, не могут оставлять комментарии к данной публикации.