вход на сайт

Имя пользователя :
Пароль :

Восстановление пароля Регистрация
О чем шумит река (Григорий Мелик-Авакян, драма, 1959) [DVDRip, Не требуется]
Рейтинг:
(голосов: 1)



[img]{THEME}/images/logopost.png[/img]



О чем шумит река

Год выпуска: 1959
Страна: СССР
Производство: Арменфильм
Жанр: драма

Режиссёр: Григорий Мелик-Авакян
В ролях: Грачья Нерсисян, Авет Аветисян
, Фрунзе Довлатян, Лилия Оганесян, Левон Тухикян, Верджалуйс Мириджанян, Амалия Аразян, Давид Малян, Лев Лобов, С. Журабаев

Перевод: Не требуется
Субтитры: Отсутствуют

Описание:
Фильм о жителях пограничного села и о судьбе одного из них — Арташеса Гамбаряна, оказавшегося после плена за границей и мечтающего вернуться на родину.


Дополнительно:
MediaInfo ▼Text
Общее
Полное имя :L:О чём шумит рекаO chem shumit reka.avi
Формат :AVI
Размер :888 MiB
Продолжительность :01:27:36.040
Общий поток :1 417 Kbps
Программа кодирования :VirtualDubMod 1.5.10.2 (build 2540/release)
Библиотека кодирования :VirtualDubMod build 2540/release

Видео
Идентификатор :0
Формат :MPEG-4 Visual
Профиль формата :Advanced [email protected]
Параметр BVOP формата :2
Параметр Qpel формата :No
Параметр GMC формата :0
Параметр Matrix формата :Default (MPEG)
Идентификатор кодека :XVID
Продолжительность :1h 27mn 36s 40ms
Битрейт :1 279 Kbps
Ширина :640 pixels
Высота :480 pixels
Соотношение сторон :1.333
Частота кадров :25.000 fps
Глубина цвета :8 bits
Подвыборка цветности :4:2:0
Цветовое пространство :YUV
Тип развертки :Progressive
Бит/(Пиксели*Кадры) :0.167
Размер потока :801 MiB (90%)
Библиотека кодирования :XviD0064

Аудио #1
Идентификатор :1
Формат :MPEG Audio
Идентификатор кодека :55
Продолжительность :01:27:36.040
Вид битрейта :Constant
Битрейт :128 Kbps
Канал(ы) :2 channels
Частота :44.1 KHz
Метод сжатия :Lossy
Размер потока :80.2 MiB (9%)



Тех. данные:
Качество:DVDRip
Продолжительность:01:27:30 час

Формат: AVI
Видео кодек: XviD
Аудио кодек: MPA1L3
Видео: 640 x 480 (4:3), 25.000 fps, 1 279 Kbps, 0.167 bit/pixel
Аудио : 44.1 KHz, , 2 channels (), 128 Kbps



7ade6154d93d93ec08adec6a53ee4de05cd0bee8О чем шумит река (Григорий Мелик-Авакян, драма, 1959) [DVDRip, Не требуется] О чем шумит река (Григорий Мелик-Авакян, драма, 1959) [DVDRip, Не требуется] " />

Аплоадер: Админ, дата: 20-04-2013, 21:53, торрент скачан: 359 раз

Понравилась раздача? Посмотрите эти:
  • Бой под Соколом (Александр Разумный, военный, 1942) [DVDRip, Не требуется]
  • Зеленые цепочки (Григорий Аронов, приключения, 1970) [DVDRip, Не требуется] ...
  • Защитник Седов (Евгений Цымбал, драма, 1988) [DVDRip, Не требуется]
  • Дорогой мой человек (Иосиф Хейфиц, драма, мелодрама, 1959) [DVDRip, Не треб ...
  • Дневной поезд (Инесса Селезнева, драма, 1976) [DVDRip, Не требуется]
  • Дама с собачкой (Иосиф Хейфиц, драма, мелодрама, 1959) [DVDRip, Не требуетс ...
  • Тоска (Фрунзе Довлатян, драма, 1990) [DVDRip, Профессиональный (полное дубл ...
  • Баллада о солдате (Григорий Чухрай, драма, мелодрама, военный, 1959) [DVDRi ...
  • Бабье царство (Алексей Салтыков, драма, 1967) [DVDRip, Не требуется]
  • Если есть паруса (Валентин Козачков, драма, 1969) [DVDRip, Не требуется]
  • Оптимистическая трагедия (Самсон Самсонов, драма, военный, история, 1963) [ ...
  • Ой, вы, гуси... (Лидия Боброва, Драма, 1991) [DVDRip, Не требуется]
  • Капитанская дочка (Владимир Каплуновский, драма, 1958) [DVDRip, Не требуетс ...
  • Черная чайка (Григорий Колтунов, приключения, 1962) [DVDRip, Не требуется]
  • Пиковая Дама (Роман Тихомиров, мюзикл, драма, 1961) [DVDRip, Не требуется]
  • Чудный характер (Константин Воинов, драма, 1970) [DVDRip, Не требуется]
  • Печники (Виктор Храмов, драма, 1982) [DVDRip, Не требуется]
  • Сестры / Восемнадцатый год / Хмурое утро (Трилогия. Хождение по мукам) (Гри ...
  • Солдатка (Владимир Денисенко, драма, 1959) [DVDRip, Не требуется]
  • Судьба человека (Сергей Бондарчук, драма, военный, биография, 1959) [DVDRip ...
  • 01-99 (Амаси Мартиросян, короткометражка, комедия, 1959) [DVDRip, Не требуе ...
  • Улица Прери / Rue des Prairies (Дени де Ла Пательер, драма, 1959) [DVDRip, ...
  • Звероловы (Глеб Нифонтов, приключения, 1959) [DVDRip, Не требуется]
  • Неизвестный солдат (3 части из 3) (Григорий Аронов, Вадим Зобин, драма, 198 ...
  • Карьера Димы Горина (Фрунзе Довлатян, Лев Мирский, комедия, 1962) [DVDRip, ...
  • Информация
    Посетители, находящиеся в группе Гости, не могут оставлять комментарии к данной публикации.