вход на сайт

Имя пользователя :
Пароль :

Восстановление пароля Регистрация
Открытая книга (Владимир Фетин, драма, биография, 1973) [DVDRip, Не требуется]
Рейтинг:
(голосов: 1)



[img]{THEME}/images/logopost.png[/img]



Открытая книга

Год выпуска: 1973
Страна: СССР
Производство: Ленфильм
Жанр: драма, биография

Режиссёр: Владимир Фетин
В ролях: Людмила Чурсина, Анна Алексахина, Владислав Дворжецкий, Игорь Добряков, Александр Демьяненко, Андрей Дмитриев, Федор Никитин, Людмила Гурченко, Владислав Стржельчик, Игорь Дмитриев

Перевод: Не требуется
Субтитры: Отсутствуют

Описание:
Героиня фильма — ученый-микробиолог, изобретатель пенициллина. Открытию спасительного препарата предшествовали многолетние научные исследования, которые еще в начале века в маленьком провинциальном городке проводил в своей лаборатории доктор Лебедев… Соседская девчонка Таня случайно оказывается в доме доктора, где впервые прикасается к загадочному миру науки…


Дополнительно:
MediaInfo ▼Text
Общее
Полное имя :K:Открытая книга.1973Otkrytaya kniga.1973.avi
Формат :AVI
Размер :1.46 GiB
Продолжительность :03:05:42.840
Общий поток :1 127 Kbps
Программа кодирования :VirtualDubModRus 1.5.10.2 (build 2542/release)
Библиотека кодирования :VirtualDubMod build 2542/release

Видео
Идентификатор :0
Формат :MPEG-4 Visual
Профиль формата :Advanced [email protected]
Параметр BVOP формата :2
Параметр Qpel формата :No
Параметр GMC формата :0
Параметр Matrix формата :Default (MPEG)
Идентификатор кодека :XVID
Продолжительность :3h 5mn 42s 840ms
Битрейт :989 Kbps
Ширина :640 pixels
Высота :320 pixels
Соотношение сторон :2.000
Частота кадров :25.000 fps
Глубина цвета :8 bits
Подвыборка цветности :4:2:0
Цветовое пространство :YUV
Тип развертки :Progressive
Бит/(Пиксели*Кадры) :0.193
Размер потока :1.28 GiB (88%)
Библиотека кодирования :XviD0064

Аудио #1
Идентификатор :1
Формат :MPEG Audio
Идентификатор кодека :55
Продолжительность :03:05:42.840
Вид битрейта :Constant
Битрейт :128 Kbps
Канал(ы) :2 channels
Частота :48.0 KHz
Метод сжатия :Lossy
Размер потока :170 MiB (11%)



Тех. данные:
Качество:DVDRip
Продолжительн
8531feb40aaca9a98d93072949e6d137db43e84fОткрытая книга (Владимир Фетин, драма, биография, 1973) [DVDRip, Не требуется] Открытая книга (Владимир Фетин, драма, биография, 1973) [DVDRip, Не требуется] " />

Аплоадер: Админ, дата: 20-04-2013, 21:52, торрент скачан: 359 раз

Понравилась раздача? Посмотрите эти:
  • По Руси (Фёдор Филиппов, биография, 1968) [DVDRip, Не требуется]
  • Нейтральные воды (Владимир Беренштейн, драма, 1968) [DVDRip, Не требуется]
  • Всадник без головы (Владимир Вайншток, мелодрама, приключения, вестерн, 197 ...
  • Где это видано, где это слыхано (Валентин Горлов, короткометражка, комедия, ...
  • Чиполлино (Тамара Лисициан, семейный, 1973) [DVDRip, Не требуется]
  • Совсем пропащий (Георгий Данелия, приключения, 1973) [DVDRip, Не требуется] ...
  • Плохой хороший человек (Иосиф Хейфиц, драма, история, 1973) [DVDRip, Не тре ...
  • Балтийское небо (2 части из 2) (Владимир Венгеров, драма, военный, история, ...
  • Анискин и Фантомас (2 части из 2) (Михаил Жаров, Владимир Рапопорт, комедия ...
  • Звезда пленительного счастья (2 части из 2) (Владимир Мотыль, драма, мелодр ...
  • Лес (Владимир Мотыль, драма, 1980) [DVDRip, Не требуется]
  • Комиссар (Александр Аскольдов, драма, военный, 1967) [DVDRip, Не требуется] ...
  • Капитанская дочка (Владимир Каплуновский, драма, 1958) [DVDRip, Не требуетс ...
  • Открытая книга (Виктор Титов, драма, биография, 1977) [TVRip, не требуется] ...
  • Сладкая женщина (Владимир Фетин, Драма, 1976) [DVDRip-AVC, Не требуется]
  • Порожний рейс (Владимир Венгеров, драма, 1962) [DVDRip, Не требуется]
  • Чайка (Юлий Карасик, драма, 1972) [DVDRip, Не требуется]
  • Сказы Уральских гор (Ольгерд Воронцов, документальный, биография, 1968) [DV ...
  • Солёный пёс (Николай Кошелев, драма, комедия, 1973) [DVDRip, Не требуется]
  • Мы с Вулканом (Валентин Перов, детский, семейный, 1973) [TVRip, Не требуетс ...
  • Сибириада (4 части из 4) (Андрей Кончаловский, драма, военный, история, 197 ...
  • Донская повесть (Владимир Фетин, драма, 1964) [DVDRip, Не требуется]
  • Александр Попов (Виктор Эйсымонт, Герберт Раппапорт, драма, биография, 1949 ...
  • Мексиканец (Владимир Каплуновский, драма, 1955) [DVDRip, Не требуется]
  • За облаками – небо (Юрий Егоров, драма, 1973) [DVDRip, Не требуется]
  • Информация
    Посетители, находящиеся в группе Гости, не могут оставлять комментарии к данной публикации.