вход на сайт

Имя пользователя :
Пароль :

Восстановление пароля Регистрация
Отпуск за свой счет (2 части из 2) (Виктор Титов, мелодрама, комедия, 1981) [DVDRip, Профессиональный (полное дублирование)]
Рейтинг:
(голосов: 1)



[img]{THEME}/images/logopost.png[/img]



Отпуск за свой счет (2 части из 2)

Год выпуска: 1981
Страна: СССР , Венгрия
Производство: Гостелерадио, Hungarian Television, Мосфильм
Жанр: мелодрама, комедия

Режиссёр: Виктор Титов
В ролях: Ольга Мелихова, Игорь Костолевский, Людмила Гурченко, Миклош Калочаи, Александр Ширвиндт, Лия Ахеджакова, Эржи Пастор, Игорь Ясулович, Елена Романова
, Владимир Басов

Перевод: Профессиональный (полное дублирование)
Субтитры: Отсутствуют

Описание:
Катя — натура на редкость восторженная, романтическая и к тому же весьма целеустремленная. Она готова мчаться хоть на край света за любимым, для которого, как выясняется, была лишь мимолетным увлечением. Конечно, Кате придется пролить немало слез — однако под занавес судьба просто не может ей не улыбнуться…


Дополнительно:
MediaInfo ▼Text
"1 часть" ▼Общее
Полное имя :K:Отпуск за свой счетOtpusk za svoy schet1_series.avi
Формат :AVI
Размер :498 MiB
Продолжительность :01:02:04.880
Общий поток :1 121 Kbps
Программа кодирования :VirtualDubMod 1.5.10.1 (build 2439/release)
Библиотека кодирования :VirtualDubMod build 2439/release

Видео
Идентификатор :0
Формат :MPEG-4 Visual
Параметр BVOP формата :1
Параметр Qpel формата :No
Параметр GMC формата :0
Параметр Matrix формата :Default (H.263)
Идентификатор кодека :DX50
Продолжительность :1h 2mn 4s 880ms
Битрейт :984 Kbps
Ширина :512 pixels
Высота :384 pixels
Соотношение сторон :1.333
Частота кадров :25.000 fps
Глубина цвета :8 bits
Подвыборка цветности :4:2:0
Цветовое пространство :YUV
Тип развертки :Progressive
Бит/(Пиксели*Кадры) :0.200
Размер потока :437 MiB (88%)
Библиотека кодирования :DivX503b1328p

Аудио #1
Идентификатор :1
Формат :MPEG Audio
Идентификатор кодека :55
Продолжительность :01:02:04.872
Вид битрейта :Constant
Битрейт :128 Kbps
Канал(ы) :1 channel
Частота :48.0 KHz
Метод сжатия :Lossy
Размер потока :56.8 MiB (11%)

"2 часть" ▼Общее
Полное имя &nb
4d64ba7089e2cf7d5835dfef96b677df3e48fa28Отпуск за свой счет (2 части из 2) (Виктор Титов, мелодрама, комедия, 1981) [DVDRip, Профессиональный (полное дублирование)] Отпуск за свой счет (2 части из 2) (Виктор Титов, мелодрама, комедия, 1981) [DVDRip, Профессиональный (полное дублирование)] " />

Аплоадер: Админ, дата: 20-04-2013, 21:50, торрент скачан: 359 раз

Понравилась раздача? Посмотрите эти:
  • Геркус Мантас (2 части из 2) (Марионас Гедрис, драма, 1972) [SATRip, Профес ...
  • Мир дому твоему (2 части из 2) (Константин Райкин, Аркадий Райкин, Марк Орл ...
  • Люди и манекены (4 части из 4) (Виктор Храмов, Аркадий Райкин, комедия, 197 ...
  • Дон Сезар де Базан (2 части из 2) (Ян Фрид, мюзикл, комедия, 1989) [DVDRip, ...
  • Покровские ворота (2 части из 2) (Михаил Козаков, мюзикл, драма, мелодрама, ...
  • Объяснение в любви (2 части из 2) (Илья Авербах, мелодрама, 1977) [DVDRip, ...
  • Карнавал (2 части из 2) (Татьяна Лиознова, мюзикл, комедия, 1981) [DVDRip, ...
  • Морской волк (4 части из 4) (Игорь Апасян, драма, мелодрама, приключения, 1 ...
  • Взятки гладки (2 части из 2) (Игорь Масленников, Комедия, 2008) [DVDRip, Не ...
  • Степь (2 части из 2) (Сергей Бондарчук, драма, история, 1977) [DVDRip, Не т ...
  • Ханума (2 части из 2) (Георгий Товстоногов, мюзикл, комедия, 1978) [DVDRip, ...
  • Приморский бульвар (2 части из 2) (Александр Полынников, мюзикл, комедия, 1 ...
  • Почти смешная история (2 части из 2) (Петр Фоменко, мелодрама, комедия, 197 ...
  • Проданный смех (2 части из 2) (Леонид Нечаев, мюзикл, фэнтези, приключения, ...
  • 31 июня (2 части из 2) (Леонид Квинихидзе, мюзикл, фэнтези, мелодрама, 1978 ...
  • Подпольный обком действует (4 части из 4) (Анатолий Буковский, военный, 197 ...
  • В лесах под Ковелем (3 части из 3) (Юрий Тупицкий, военный, история, 1984) ...
  • Отпуск за свой счет (Виктор Титов, Комедия, 1981) [DVDRip, 2 серии]
  • Гений (2 части из 2) (Виктор Сергеев, Комедия, криминал, 1991) [DVDRip, Не ...
  • Дядюшкин сон (2 части из2) (Александр Орлов, драма, комедия, 1981) [DVDRip, ...
  • Информация
    Посетители, находящиеся в группе Гости, не могут оставлять комментарии к данной публикации.