вход на сайт

Имя пользователя :
Пароль :

Восстановление пароля Регистрация
По Руси (Фёдор Филиппов, биография, 1968) [DVDRip, Не требуется]
Рейтинг:
(голосов: 1)



[img]{THEME}/images/logopost.png[/img]



По Руси

Год выпуска: 1968
Страна: Россия
Производство: Мосфильм
Жанр: биография

Режиссёр: Фёдор Филиппов
В ролях: Людмила Чурсина, Роман Филиппов, Гоги Кавтарадзе, Иван Лапиков, Алексей Локтев, В. Макаренко, Раднэр Муратов, Елена Санаева, Светлана Савёлова, Ю. Щутов

Перевод: Не требуется
Субтитры: Отсутствуют

Описание:
По мотивам ранних автобиографических рассказов Максима Горького «Однажды осенью», «Коновалов», «Двадцать шесть и одна», «Мой спутник», «Вывод», «На соли», «Женщина».


Дополнительно:
MediaInfo ▼Text
Общее
Полное имя :L:3.РаздачаПо Руси.1968Po Rusi.avi
Формат :AVI
Размер :1.25 GiB
Продолжительность :01:30:04.400
Общий поток :1 986 Kbps
Программа кодирования :VirtualDubMod 1.5.10.2 (build 2540/release)
Библиотека кодирования :VirtualDubMod build 2540/release

Видео
Идентификатор :0
Формат :MPEG-4 Visual
Профиль формата :Advanced [email protected]
Параметр BVOP формата :2
Параметр Qpel формата :No
Параметр GMC формата :0
Параметр Matrix формата :Default (MPEG)
Идентификатор кодека :XVID
Продолжительность :1h 30mn 4s 400ms
Битрейт :1 848 Kbps
Ширина :640 pixels
Высота :480 pixels
Соотношение сторон :1.333
Частота кадров :25.000 fps
Глубина цвета :8 bits
Подвыборка цветности :4:2:0
Цветовое пространство :YUV
Тип развертки :Progressive
Бит/(Пиксели*Кадры) :0.241
Размер потока :1.16 GiB (93%)
Библиотека кодирования :XviD0046C

Аудио #1
Идентификатор :1
Формат :MPEG Audio
Идентификатор кодека :55
Продолжительность :01:30:04.392
Вид битрейта :Constant
Битрейт :128 Kbps
Канал(ы) :2 channels
Частота :48.0 KHz
Метод сжатия :Lossy
Размер потока :82.5 MiB (6%)



Тех. данные:
Качество:DVDRip
Продолжительность:01:30:00 час

Формат: AVI
Видео кодек: XviD
Аудио кодек: MPA1L3
Видео: 640 x 480 (4:3), 25.000 fps, 1 848 Kbps, 0.241 bit/pixel
Аудио : 48.0 KHz, , 2 channels (), 128 Kbps



00a8ddc79e31119f3932b58be07aafe2a595dc11По Руси (Фёдор Филиппов, биография, 1968) [DVDRip, Не требуется] По Руси (Фёдор Филиппов, биография, 1968) [DVDRip, Не требуется] " />

Аплоадер: Админ, дата: 20-04-2013, 21:44, торрент скачан: 359 раз

Понравилась раздача? Посмотрите эти:
  • Дружок (Виктор Эйсымонт, семейный, 1958) [DVDRip, Не требуется]
  • Василий и Василиса (Ирина Поплавская, драма, мелодрама, биография, 1981) [D ...
  • Золотые яблоки (Фёдор Филиппов, семейный, 1954) [DVDRip, Не требуется]
  • Журавушка (Николай Москаленко, драма, мелодрама, 1968) [DVDRip, Не требуетс ...
  • Вас вызывает Таймыр (Алексей Коренев, комедия, 1970) [DVDRip, Не требуется] ...
  • Бой под Соколом (Александр Разумный, военный, 1942) [DVDRip, Не требуется]
  • Открытая книга (Владимир Фетин, драма, биография, 1973) [DVDRip, Не требуе ...
  • Нейтральные воды (Владимир Беренштейн, драма, 1968) [DVDRip, Не требуется]
  • Вы чье, старичье? (Иосиф Хейфиц, драма, 1988) [DVDRip, Не требуется]
  • Хозяин тайги (Владимир Назаров, криминал, 1968) [DVDRip, Не требуется]
  • Степень риска (Илья Авербах, драма, 1968) [DVDRip, Не требуется]
  • Деревенский детектив (Иван Лукинский, комедия, криминал, 1968) [DVDRip, Не ...
  • Зигзаг удачи (Эльдар Рязанов, комедия, 1968) [DVDRip, Не требуется]
  • Князь Игорь (Роман Тихомиров, мюзикл, приключения, 1969) [DVDRip, Не требуе ...
  • Капитанская дочка (Владимир Каплуновский, драма, 1958) [DVDRip, Не требуетс ...
  • Сказы Уральских гор (Ольгерд Воронцов, документальный, биография, 1968) [DV ...
  • Печники (Виктор Храмов, драма, 1982) [DVDRip, Не требуется]
  • Спортлото-82 (Леонид Гайдай, комедия, приключения, 1982) [DVDRip, Не требуе ...
  • Разведчики (Игорь Самборский, Алексей Швачко, приключения, военный, 1968) [ ...
  • Юность Петра (Сергей Герасимов, драма, биография, 1980) [DVDRip, Не требует ...
  • Смешная девчонка / Funny Girl (Уильям Уайлер , мюзикл, драма, мелодрама, ко ...
  • Мальчишки с улицы Пал / A pal-utcai fiuk (Золтан Фабри, драма, 1968) [DVDRi ...
  • Убей! / Kiru (Кихачи Окамото, боевик, драма, комедия, 1968) [DVDRip, Профес ...
  • Адмирал Нахимов (Всеволод Пудовкин, драма, военный, биография, история, 194 ...
  • Котовский (Александр Файнциммер, военный, биография, история, 1942) [DVDRip ...
  • Информация
    Посетители, находящиеся в группе Гости, не могут оставлять комментарии к данной публикации.