вход на сайт

Имя пользователя :
Пароль :

Восстановление пароля Регистрация
Тростинка на ветру (2 части из 2) (Виктор Аристов, драма, 1980) [DVDRip, Не требуется]
Рейтинг:
(голосов: 1)



[img]{THEME}/images/logopost.png[/img]



Тростинка на ветру (2 части из 2)

Год выпуска: 1980
Страна: СССР
Производство: Гостелерадио, Ленфильм
Жанр: драма

Режиссёр: Виктор Аристов
В ролях: Ольга Мелихова, Александр Пороховщиков, Андрей Дударенко, Андрей Толубеев, Татьяна Лебедькова, А. Алферов, Ольга Осипова, В. Головко, М. Басова, Н. Васильева

Перевод: Не требуется
Субтитры: Отсутствуют

Описание:
Варя Березина только что окончила школу. Родители разводятся, любимая бабка донимает приставаниями о смысле жизни. Мишка — хороший парень — очень любит Варьку, но многого не понимает. Не получив документов, она уезжает в город к сестре. У сестры большая новая квартира, хороший муж и милый друг семьи — сосед Виссарион Аркадьевич. Он врач и его все любят. Он помогает Варьке поступить в институт, но ни документов, ни знаний у нее нет. Сестра очень переживает. А Варька устраивается в больницу, где может часто видеть доктора и быть с людьми. Когда же Виссариона Аркадьевича переводят по службе в Ленинград, Варька возвращается в деревню.


Дополнительно:
MediaInfo ▼Text
"1 часть" ▼Общее
Полное имя :K:Тростинка на ветруTrostinka navetru.1980Trostinka_na_vetru_01.avi
Формат :AVI
Размер :1.06 GiB
Продолжительность :01:10:40.320
Общий поток :2 140 Kbps

Видео
Идентификатор :0
Формат :MPEG-4 Visual
Профиль формата :[email protected]
Параметр BVOP формата :Yes
Параметр Qpel формата :No
Параметр GMC формата :0
Параметр Matrix формата :Default (H.263)
Идентификатор кодека :XVID
Продолжительность :1h 10mn 40s 320ms
Битрейт :2 000 Kbps
Ширина :720 pixels
Высота :480 pixels
Соотношение сторон :1.500
Частота кадров :25.000 fps
Глубина цвета :8 bits
Цветовое пространство :YUV
Тип развертки :Progressive
Бит/(Пиксели*Кадры) :0.231
Размер потока :1 011 MiB (93%)

Аудио #1
Идентификатор :1
Формат :MPEG Audio
Идентификатор кодека :55
Продолжительность :01:10:40.301
Вид битрейта :Constant
Битрейт :128 Kbps
Канал(ы) :2 channels
Частота :44.1 KHz
Метод сжатия :Lossy
Размер потока :64.6 MiB (6%)

"2 часть" ▼Общее
Полное имя &nb
fed601779d2bc4ef7ba4355c3fc3b236741def05Тростинка на ветру (2 части из 2) (Виктор Аристов, драма, 1980) [DVDRip, Не требуется] Тростинка на ветру (2 части из 2) (Виктор Аристов, драма, 1980) [DVDRip, Не требуется] " />

Аплоадер: Админ, дата: 20-04-2013, 21:23, торрент скачан: 359 раз

Понравилась раздача? Посмотрите эти:
  • Дни хирурга Мишкина (3 части из 3) (Вадим Зобин, драма, 1967) [DVDRip, Не т ...
  • Будни и праздники Серафимы Глюкиной (2 части из 2) (Ростислав Горяев, драма ...
  • Отпуск за свой счет (2 части из 2) (Виктор Титов, мелодрама, комедия, 1981) ...
  • Месье Ленуар, который... (2 части из 2) (Александр Орлов, телеспектакль, др ...
  • Макар-следопыт (3 части из 3) (Николай Ковальский, семейный, 1984) [DVDRip, ...
  • Люди и манекены (4 части из 4) (Виктор Храмов, Аркадий Райкин, комедия, 197 ...
  • Дон Сезар де Базан (2 части из 2) (Ян Фрид, мюзикл, комедия, 1989) [DVDRip, ...
  • Где-то гремит война (3 части из 3) (Артур Войтецкий, драма, военный, 1986) ...
  • Вся королевская рать (3 части из 3) (Наум Ардашников, Александр Гуткович, д ...
  • Жили-были старик со старухой (2 части из 2) (Григорий Чухрай, драма, 1964) ...
  • Карнавал (2 части из 2) (Татьяна Лиознова, мюзикл, комедия, 1981) [DVDRip, ...
  • Морской волк (4 части из 4) (Игорь Апасян, драма, мелодрама, приключения, 1 ...
  • Повесть о человеческом сердце (3 части из 3) (Даниил Храбровицкий, мелодрам ...
  • Степь (2 части из 2) (Сергей Бондарчук, драма, история, 1977) [DVDRip, Не т ...
  • У меня есть лев (2 части из 2) (Константин Бромберг, драма, комедия, приклю ...
  • Сибириада (4 части из 4) (Андрей Кончаловский, драма, военный, история, 197 ...
  • Приморский бульвар (2 части из 2) (Александр Полынников, мюзикл, комедия, 1 ...
  • Председатель (2 части из 2) (Алексей Салтыков, драма, 1964) [DVDRip, Не тре ...
  • Тихий Дон (3 части из 3) (Сергей Герасимов, драма, военный, 1957) [DVDRip, ...
  • Рок-н-ролл для принцесс (2 части из 2) (Радомир Василевский, Комедия, семей ...
  • Подпольный обком действует (4 части из 4) (Анатолий Буковский, военный, 197 ...
  • В лесах под Ковелем (3 части из 3) (Юрий Тупицкий, военный, история, 1984) ...
  • Гений (2 части из 2) (Виктор Сергеев, Комедия, криминал, 1991) [DVDRip, Не ...
  • Дядюшкин сон (2 части из2) (Александр Орлов, драма, комедия, 1981) [DVDRip, ...
  • Неизвестный солдат (3 части из 3) (Григорий Аронов, Вадим Зобин, драма, 198 ...
  • Информация
    Посетители, находящиеся в группе Гости, не могут оставлять комментарии к данной публикации.