вход на сайт

Имя пользователя :
Пароль :

Восстановление пароля Регистрация
Человек, которому везло (Константин Ершов, драма, 1978) [DVDRip, Не требуется]
Рейтинг:
(голосов: 1)



[img]{THEME}/images/logopost.png[/img]



Человек, которому везло

Год выпуска: 1978
Страна: СССР
Производство: Ленфильм
Жанр: драма

Режиссёр: Константин Ершов
В ролях: Георгий Бурков, Анатолий Адоскин, Татьяна Шестакова, Галина Антипина, Эрнст Романов, Александр Пороховщиков, И. Петровская, Юрий Лазарев, Константин Ершов, Елена Андерегг

Перевод: Не требуется
Субтитры: Отсутствуют

Описание:
История отца, талантливого геолога Владимира Ишутина, увиденная глазами сыновей. Фильм воспроизводит 20-30-е годы, когда многочисленные геологические партии искали месторождения бокситов для выплавки необходимого стране алюминия, а затем — в сороковые — стратегическое сырье.


Дополнительно:
MediaInfo ▼Text
Общее
Полное имя :K:Человек, которому везлоChelovek_kotoromu_vezlo_DVDRip.avi
Формат :AVI
Размер :1.33 GiB
Продолжительность :01:19:21.728
Общий поток :2 402 Kbps
Программа кодирования :VirtualDubModRus 1.5.10.2 (build 2542/release)
Библиотека кодирования :VirtualDubMod build 2542/release

Видео
Идентификатор :0
Формат :MPEG-4 Visual
Параметр BVOP формата :1
Параметр Qpel формата :No
Параметр GMC формата :0
Параметр Matrix формата :Default (H.263)
Идентификатор кодека :DX50
Продолжительность :1h 19mn 21s 720ms
Битрейт :2 200 Kbps
Ширина :720 pixels
Высота :352 pixels
Соотношение сторон :2.045
Частота кадров :25.000 fps
Глубина цвета :8 bits
Подвыборка цветности :4:2:0
Цветовое пространство :YUV
Тип развертки :Progressive
Бит/(Пиксели*Кадры) :0.347
Размер потока :1.22 GiB (92%)
Библиотека кодирования :DivX503b2676p

Аудио #1
Идентификатор :1
Формат :AC-3
Формат/Информация :Audio Coding 3
Идентификатор кодека :2000
Продолжительность :01:19:21.728
Вид битрейта :Constant
Битрейт :192 Kbps
Канал(ы) :2 channels
Расположение каналов :Front: L R
Частота :48.0 KHz
Битовая глубина :16 bits
Метод сжатия :Lossy
Размер потока :109 MiB (8%)



Тех.
1a6006e64367d643360ce0b25ba23a7fe9950049Человек, которому везло (Константин Ершов, драма, 1978) [DVDRip, Не требуется] Человек, которому везло (Константин Ершов, драма, 1978) [DVDRip, Не требуется] " />

Аплоадер: Админ, дата: 20-04-2013, 21:18, торрент скачан: 359 раз

Понравилась раздача? Посмотрите эти:
  • На подмостках сцены (Константин Юдин, драма, комедия, 1956) [DVDRip, Не тре ...
  • Борец и клоун (Борис Барнет, Константин Юдин, драма, спорт, 1957) [DVDRip, ...
  • Мир дому твоему (2 части из 2) (Константин Райкин, Аркадий Райкин, Марк Орл ...
  • Дама с собачкой (Иосиф Хейфиц, драма, мелодрама, 1959) [DVDRip, Не требуетс ...
  • Четвертый (Александр Столпер, драма, 1972) [DVDRip, Не требуется]
  • Плохой хороший человек (Иосиф Хейфиц, драма, история, 1973) [DVDRip, Не тре ...
  • Двенадцать месяцев (2 части из 2) (Анатолий Граник, фэнтези, семейный, 1972 ...
  • Чудный характер (Константин Воинов, драма, 1970) [DVDRip, Не требуется]
  • Дача (Константин Воинов, комедия, 1974) [DVDRip, Не требуется]
  • Челюскинцы (2 части из 2) (Михаил Ершов, приключения, 1984) [TVRip, Не треб ...
  • Степь (2 части из 2) (Сергей Бондарчук, драма, история, 1977) [DVDRip, Не т ...
  • Смелые люди (Константин Юдин, боевик, драма, военный, 1950) [DVDRip, Не тре ...
  • Уходя - уходи (Виктор Трегубович, комедия, 1978) [DVDRip, Не требуется]
  • У меня есть лев (2 части из 2) (Константин Бромберг, драма, комедия, приклю ...
  • Сибириада (4 части из 4) (Андрей Кончаловский, драма, военный, история, 197 ...
  • Старомодная комедия (Эра Савельева, Татьяна Березанцева, мелодрама, 1978) [ ...
  • Степанова памятка (Константин Ершов, фэнтези, 1976) [DVDRip, Не требуется]
  • Подпольный обком действует (4 части из 4) (Анатолий Буковский, военный, 197 ...
  • Дядюшкин сон (Константин Воинов, драма, 1966) [DVDRip, Не требуется]
  • За облаками – небо (Юрий Егоров, драма, 1973) [DVDRip, Не требуется]
  • Информация
    Посетители, находящиеся в группе Гости, не могут оставлять комментарии к данной публикации.