вход на сайт

Имя пользователя :
Пароль :

Восстановление пароля Регистрация
Конец операции «Резидент» (2 части из 2) (Вениамин Дорман, боевик, приключения, 1986) [DVDRip, Не требуется]
Рейтинг:
(голосов: 1)



[img]{THEME}/images/logopost.png[/img]



Конец операции «Резидент» (2 части из 2)

Год выпуска: 1986
Страна: СССР
Производство: Студия Горького
Жанр: боевик, приключения

Режиссёр: Вениамин Дорман
В ролях: Георгий Жжёнов, Пётр Вельяминов, Николай Прокопович, Евгений Герасимов, Леонид Броневой, Ирен Азер, Евгений Киндинов, Александр Граве, Ирина Розанова, Юлия Жженова

Перевод: Не требуется
Субтитры: Отсутствуют

Описание:
Перед тем, как операция «Резидент», длившаяся 15 лет, окончательно завершится в нашу пользу, империалисты решаются на страшное злодеяние: посылают матерого диверсанта Брокмана убить изобретателя сверхсекретного противоракетного оружия Нестерова…


Дополнительно:
MediaInfo ▼Text
"1 часть" ▼Общее
Полное имя :D:Ошибка резидента4. Конец операции РезидентKonec operacii Rezident�1 Konec operacii Rezident.DVDRip.avi
Формат :AVI
Размер :735 MiB
Продолжительность :01:07:04.128
Общий поток :1 533 Kbps
Программа кодирования :VirtualDubModRus 1.5.10.2 (build 2542/release)
Библиотека кодирования :VirtualDubMod build 2542/release

Видео
Идентификатор :0
Формат :MPEG-4 Visual
Параметр BVOP формата :1
Параметр Qpel формата :No
Параметр GMC формата :0
Параметр Matrix формата :Default (H.263)
Идентификатор кодека :DX50
Продолжительность :1h 7mn 4s 120ms
Битрейт :1 395 Kbps
Ширина :688 pixels
Высота :336 pixels
Соотношение сторон :2.048
Частота кадров :25.000 fps
Глубина цвета :8 bits
Подвыборка цветности :4:2:0
Цветовое пространство :YUV
Тип развертки :Progressive
Бит/(Пиксели*Кадры) :0.241
Размер потока :669 MiB (91%)
Библиотека кодирования :DivX503b2676p

Аудио #1
Идентификатор :1
Формат :MPEG Audio
Идентификатор кодека :55
Продолжительность :01:07:04.128
Вид битрейта :Constant
Битрейт :128 Kbps
Канал(ы) :2 channels
Частота :48.0 KHz
Метод сжатия :Lossy
Размер потока :61.4 MiB (8%)

"2 часть" ▼Общее
Полное имя :D:Ошибка резидента4. Конец операции РезидентKonec operacii Rezident�2 K
51f9a53812a108c4f1dbd4d3f1b65bfd406f2b64Конец операции «Резидент» (2 части из 2) (Вениамин Дорман, боевик, приключения, 1986) [DVDRip, Не требуется] Конец операции «Резидент» (2 части из 2) (Вениамин Дорман, боевик, приключения, 1986) [DVDRip, Не требуется] " />

Аплоадер: Админ, дата: 19-04-2013, 00:13, торрент скачан: 359 раз

Понравилась раздача? Посмотрите эти:
  • Дни хирурга Мишкина (3 части из 3) (Вадим Зобин, драма, 1967) [DVDRip, Не т ...
  • Ошибка резидента (2 части из 2) (Вениамин Дорман, детектив, 1968) [DVDRip, ...
  • Судьба резидента (2 части из 2) (Вениамин Дорман, детектив, приключения, 19 ...
  • Возвращение резидента (2 части из 2) (Вениамин Дорман, триллер, 1982) [DVDR ...
  • Месье Ленуар, который... (2 части из 2) (Александр Орлов, телеспектакль, др ...
  • Штрафной удар (Вениамин Дорман, комедия, спорт, 1963) [DVDRip, Не требуется ...
  • Конец "Сатурна" (Виллен Азаров, Мосфильм, 1967) [DVDRip, Не требуется]
  • Бой после победы (2 части из 2) (Виллен Азаров, триллер, военный, 1972) [DV ...
  • Операция «Трест» (4 части из 4) (Сергей Колосов, приключения, история, 1967 ...
  • Легкая жизнь (Вениамин Дорман, комедия, 1964) [DVDRip, Не требуется]
  • Ошибка Резидента (1968, детектив) [DVDRip]
  • Покушение на ГОЭЛРО (3 части из 3) (Николай Гусаров, приключения, 1986) [DV ...
  • Челюскинцы (2 части из 2) (Михаил Ершов, приключения, 1984) [TVRip, Не треб ...
  • Степь (2 части из 2) (Сергей Бондарчук, драма, история, 1977) [DVDRip, Не т ...
  • Ханума (2 части из 2) (Георгий Товстоногов, мюзикл, комедия, 1978) [DVDRip, ...
  • Тихий Дон (3 части из 3) (Сергей Герасимов, драма, военный, 1957) [DVDRip, ...
  • Подпольный обком действует (4 части из 4) (Анатолий Буковский, военный, 197 ...
  • В лесах под Ковелем (3 части из 3) (Юрий Тупицкий, военный, история, 1984) ...
  • Ошибка Резидента (1968, детектив) [DVDRip]
  • Конец операции "Резидент" (1986, детектив) [DVDRip]
  • [Тетралогия] Операция "Резидент" (Вениамин Дорман, детектив, 1968-1986) [DV ...
  • Гений (2 части из 2) (Виктор Сергеев, Комедия, криминал, 1991) [DVDRip, Не ...
  • Дядюшкин сон (2 части из2) (Александр Орлов, драма, комедия, 1981) [DVDRip, ...
  • Пропавшая экспедиция (2 части из 2) (Вениамин Дорман, драма, детектив, прик ...
  • Золотая речка (Вениамин Дорман, приключения, 1977) [DVDRip, Не требуется]
  • Информация
    Посетители, находящиеся в группе Гости, не могут оставлять комментарии к данной публикации.