вход на сайт

Имя пользователя :
Пароль :

Восстановление пароля Регистрация
Возвращение резидента (2 части из 2) (Вениамин Дорман, триллер, 1982) [DVDRip, Не требуется]
Рейтинг:
(голосов: 1)



[img]{THEME}/images/logopost.png[/img]



Возвращение резидента (2 части из 2)

Год выпуска: 1982
Страна: СССР
Производство: Студия Горького
Жанр: триллер

Режиссёр: Вениамин Дорман
В ролях: Георгий Жжёнов, Пётр Вельяминов, Леонид Броневой, Борис Химичев, Ирен Азер, Евгений Киндинов, Вадим Захарченко, Николай Прокопович, Любовь Соколова, Николай Граббе

Перевод: Не требуется
Субтитры: Отсутствуют

Описание:
Продолжение рассказа об операции советской контрразведки, начатого в фильмах «Ошибка резидента» и «Судьба резидента». Благодаря действиям Михаила Тульева удается предотвратить диверсионную акцию западных спецслужб и арестовать нацистского преступника.


Дополнительно:
MediaInfo ▼Text
"1 часть" ▼Общее
Полное имя :D:Ошибка резидента3. Возвращение резидентаVozvraschenie rezidenta�1 Vozvraschenie rezidenta.DVDRip.avi
Формат :AVI
Размер :752 MiB
Продолжительность :01:05:00.320
Общий поток :1 617 Kbps
Программа кодирования :VirtualDubModRus 1.5.10.2 (build 2542/release)
Библиотека кодирования :VirtualDubMod build 2542/release

Видео
Идентификатор :0
Формат :MPEG-4 Visual
Параметр BVOP формата :1
Параметр Qpel формата :No
Параметр GMC формата :0
Параметр Matrix формата :Default (H.263)
Идентификатор кодека :DX50
Продолжительность :1h 5mn 0s 320ms
Битрейт :1 415 Kbps
Ширина :672 pixels
Высота :320 pixels
Соотношение сторон :2.100
Частота кадров :25.000 fps
Глубина цвета :8 bits
Подвыборка цветности :4:2:0
Цветовое пространство :YUV
Тип развертки :Progressive
Бит/(Пиксели*Кадры) :0.263
Размер потока :658 MiB (88%)
Библиотека кодирования :DivX503b2676p

Аудио #1
Идентификатор :1
Формат :MPEG Audio
Идентификатор кодека :55
Продолжительность :01:05:00.312
Вид битрейта :Constant
Битрейт :192 Kbps
Канал(ы) :2 channels
Частота :48.0 KHz
Метод сжатия :Lossy
Размер потока :89.3 MiB (12%)

"2 часть" ▼Общее
Полное имя :D:Ошибка резидента3. Возвращение резидентаVozvraschenie rezidenta�2 Vozvraschenie
267da6700c63ce91900b7799ae4613d5980eedecВозвращение резидента (2 части из 2) (Вениамин Дорман, триллер, 1982) [DVDRip, Не требуется] Возвращение резидента (2 части из 2) (Вениамин Дорман, триллер, 1982) [DVDRip, Не требуется] " />

Аплоадер: Админ, дата: 19-04-2013, 00:11, торрент скачан: 359 раз

Понравилась раздача? Посмотрите эти:
  • Дни хирурга Мишкина (3 части из 3) (Вадим Зобин, драма, 1967) [DVDRip, Не т ...
  • Ошибка резидента (2 части из 2) (Вениамин Дорман, детектив, 1968) [DVDRip, ...
  • Судьба резидента (2 части из 2) (Вениамин Дорман, детектив, приключения, 19 ...
  • Конец операции «Резидент» (2 части из 2) (Вениамин Дорман, боевик, приключе ...
  • Месье Ленуар, который... (2 части из 2) (Александр Орлов, телеспектакль, др ...
  • Штрафной удар (Вениамин Дорман, комедия, спорт, 1963) [DVDRip, Не требуется ...
  • Бой после победы (2 части из 2) (Виллен Азаров, триллер, военный, 1972) [DV ...
  • Легкая жизнь (Вениамин Дорман, комедия, 1964) [DVDRip, Не требуется]
  • Ошибка Резидента (1968, детектив) [DVDRip]
  • Степь (2 части из 2) (Сергей Бондарчук, драма, история, 1977) [DVDRip, Не т ...
  • Ханума (2 части из 2) (Георгий Товстоногов, мюзикл, комедия, 1978) [DVDRip, ...
  • Тихий Дон (3 части из 3) (Сергей Герасимов, драма, военный, 1957) [DVDRip, ...
  • Подпольный обком действует (4 части из 4) (Анатолий Буковский, военный, 197 ...
  • Ошибка Резидента (1968, детектив) [DVDRip]
  • Судьба Резидента (1970, детектив) [DVDRip]
  • Возвращение Резидента (1982, детектив) [DVDRip]
  • Конец операции "Резидент" (1986, детектив) [DVDRip]
  • [Тетралогия] Операция "Резидент" (Вениамин Дорман, детектив, 1968-1986) [DV ...
  • Пропавшая экспедиция (2 части из 2) (Вениамин Дорман, драма, детектив, прик ...
  • Золотая речка (Вениамин Дорман, приключения, 1977) [DVDRip, Не требуется]
  • Информация
    Посетители, находящиеся в группе Гости, не могут оставлять комментарии к данной публикации.