вход на сайт

Имя пользователя :
Пароль :

Восстановление пароля Регистрация
Судьба резидента (2 части из 2) (Вениамин Дорман, детектив, приключения, 1970) [DVDRip, Не требуется]
Рейтинг:
(голосов: 1)



[img]{THEME}/images/logopost.png[/img]



Судьба резидента (2 части из 2)

Год выпуска: 1970
Страна: СССР
Производство: Студия Горького
Жанр: детектив, приключения

Режиссёр: Вениамин Дорман
В ролях: Георгий Жжёнов, Михаил Ножкин, Андрей Вертоградов, Ефим Копелян, Ростислав Плятт, Николай Прокопович, Николай Граббе, Жанна Болотова, Ээве Киви, Элеонора Шашкова

Перевод: Не требуется
Субтитры: Отсутствуют

Описание:
Психологический детектив, продолжение фильма «Ошибка резидента». Советские контрразведчики решают не прекращать «игру» с противником и используют помощь перевербованного шпиона Тульева, находящегося в заключении. В западный разведцентр вновь идут шифровки за подписью «Надежда»…


Дополнительно:
MediaInfo ▼Text
"1 часть" ▼Общее
Полное имя :D:Ошибка резидента1. Судьба резидентаSud`ba rezidenta�1 Sud`ba rezidenta.DVDRip.avi
Формат :AVI
Размер :801 MiB
Продолжительность :01:19:27.680
Общий поток :1 409 Kbps
Программа кодирования :VirtualDubModRus 1.5.10.2 (build 2542/release)
Библиотека кодирования :VirtualDubMod build 2542/release

Видео
Идентификатор :0
Формат :MPEG-4 Visual
Параметр BVOP формата :1
Параметр Qpel формата :No
Параметр GMC формата :0
Параметр Matrix формата :Default (H.263)
Идентификатор кодека :DX50
Продолжительность :1h 19mn 27s 680ms
Битрейт :1 272 Kbps
Ширина :688 pixels
Высота :352 pixels
Соотношение сторон :1.955
Частота кадров :25.000 fps
Глубина цвета :8 bits
Подвыборка цветности :4:2:0
Цветовое пространство :YUV
Тип развертки :Progressive
Бит/(Пиксели*Кадры) :0.210
Размер потока :723 MiB (90%)
Библиотека кодирования :DivX503b2676p

Аудио #1
Идентификатор :1
Формат :MPEG Audio
Идентификатор кодека :55
Продолжительность :01:19:27.672
Вид битрейта :Constant
Битрейт :128 Kbps
Канал(ы) :2 channels
Частота :48.0 KHz
Метод сжатия :Lossy
Размер потока :72.7 MiB (9%)

"2 часть" ▼Общее
Полное имя :D:Ошибка резидента1. Судьба резидентаSud`ba rezidenta�2 Sud`ba rez
93259dc468637ea287a0070201722ced520a91f8Судьба резидента (2 части из 2) (Вениамин Дорман, детектив, приключения, 1970) [DVDRip, Не требуется] Судьба резидента (2 части из 2) (Вениамин Дорман, детектив, приключения, 1970) [DVDRip, Не требуется] " />

Аплоадер: Админ, дата: 19-04-2013, 00:08, торрент скачан: 359 раз

Понравилась раздача? Посмотрите эти:
  • Дни хирурга Мишкина (3 части из 3) (Вадим Зобин, драма, 1967) [DVDRip, Не т ...
  • Будни и праздники Серафимы Глюкиной (2 части из 2) (Ростислав Горяев, драма ...
  • Ошибка резидента (2 части из 2) (Вениамин Дорман, детектив, 1968) [DVDRip, ...
  • Возвращение резидента (2 части из 2) (Вениамин Дорман, триллер, 1982) [DVDR ...
  • Конец операции «Резидент» (2 части из 2) (Вениамин Дорман, боевик, приключе ...
  • Месье Ленуар, который... (2 части из 2) (Александр Орлов, телеспектакль, др ...
  • Штрафной удар (Вениамин Дорман, комедия, спорт, 1963) [DVDRip, Не требуется ...
  • Конец "Сатурна" (Виллен Азаров, Мосфильм, 1967) [DVDRip, Не требуется]
  • Бой после победы (2 части из 2) (Виллен Азаров, триллер, военный, 1972) [DV ...
  • Легкая жизнь (Вениамин Дорман, комедия, 1964) [DVDRip, Не требуется]
  • Ошибка Резидента (1968, детектив) [DVDRip]
  • Степь (2 части из 2) (Сергей Бондарчук, драма, история, 1977) [DVDRip, Не т ...
  • Слушать в отсеках (2 части из 2) (Николай Засеев-Руденко, приключения, 1985 ...
  • Сибириада (4 части из 4) (Андрей Кончаловский, драма, военный, история, 197 ...
  • Ханума (2 части из 2) (Георгий Товстоногов, мюзикл, комедия, 1978) [DVDRip, ...
  • Тихий Дон (3 части из 3) (Сергей Герасимов, драма, военный, 1957) [DVDRip, ...
  • Подпольный обком действует (4 части из 4) (Анатолий Буковский, военный, 197 ...
  • Ошибка Резидента (1968, детектив) [DVDRip]
  • Судьба Резидента (1970, детектив) [DVDRip]
  • Возвращение Резидента (1982, детектив) [DVDRip]
  • Конец операции "Резидент" (1986, детектив) [DVDRip]
  • [Тетралогия] Операция "Резидент" (Вениамин Дорман, детектив, 1968-1986) [DV ...
  • Пропавшая экспедиция (2 части из 2) (Вениамин Дорман, драма, детектив, прик ...
  • Золотая речка (Вениамин Дорман, приключения, 1977) [DVDRip, Не требуется]
  • Воскресенье, половина седьмого (4 части из 4) (Вадим Зобин, криминал, детек ...
  • Информация
    Посетители, находящиеся в группе Гости, не могут оставлять комментарии к данной публикации.