вход на сайт

Имя пользователя :
Пароль :

Восстановление пароля Регистрация
Абориген (Елена Николаева, драма, 1988) [DVDRip, Не требуется]
Рейтинг:
(голосов: 1)



[img]{THEME}/images/logopost.png[/img]



Абориген

Год выпуска: 1988
Страна: СССР
Производство: Студия Горького, Мир
Жанр: драма

Режиссёр: Елена Николаева
В ролях: Владислав Галкин, Александр Негреба, Александр Яковлев, Надежда Маркина, Валерий Баринов, Жанна Эппле, Александр Миронов, Олег Штефанко, Виктор Незнанов, Владимир Скляров

Перевод: Не требуется
Субтитры: Отсутствуют

Описание:
Отец пятнадцатилетнего Борьки Хромова утонул по пьянке, матери он не нужен. В очередной летний сезон мечта уехать из Сургута остается мечтой, мир взрослых — совсем чужой мир. Даже тайга предаст его, когда ночью он пойдет браконьерствовать и столкнется со скрывающимися зэками…


Дополнительно:
MediaInfo ▼Text
Общее
Полное имя :K:АборигенAborigen.DVDRip.avi
Формат :AVI
Размер :2.19 GiB
Продолжительность :02:06:11.680
Общий поток :2 484 Kbps
Программа кодирования :VirtualDubMod 1.5.10.2 (build 2542/release)

Видео
Идентификатор :0
Формат :MPEG-4 Visual
Профиль формата :Advanced [email protected]
Параметр BVOP формата :1
Параметр Qpel формата :No
Параметр GMC формата :0
Параметр Matrix формата :Custom
Идентификатор кодека :XVID
Продолжительность :2h 6mn 11s 680ms
Битрейт :2 091 Kbps
Ширина :704 pixels
Высота :544 pixels
Соотношение сторон :1.294
Частота кадров :25.000 fps
Глубина цвета :8 bits
Подвыборка цветности :4:2:0
Цветовое пространство :YUV
Тип развертки :Progressive
Бит/(Пиксели*Кадры) :0.218
Размер потока :1.84 GiB (84%)
Библиотека кодирования :XviD0046

Аудио #1
Идентификатор :1
Формат :AC-3
Формат/Информация :Audio Coding 3
Идентификатор кодека :2000
Продолжительность :02:06:11.232
Вид битрейта :Constant
Битрейт :384 Kbps
Канал(ы) :6 channels
Расположение каналов :Front: L C R, Side: L R, LFE
Частота :48.0 KHz
Битовая глубина :16 bits
Метод сжатия :Lossy
Размер потока :347 MiB (15%)



Тех. данные:
Качество:D
a6b1506d16824cf96fc8a959f1234b905ff055f3Абориген (Елена Николаева, драма, 1988) [DVDRip, Не требуется] Абориген (Елена Николаева, драма, 1988) [DVDRip, Не требуется] " />

Аплоадер: Админ, дата: 18-04-2013, 11:52, торрент скачан: 359 раз

Понравилась раздача? Посмотрите эти:
  • На подмостках сцены (Константин Юдин, драма, комедия, 1956) [DVDRip, Не тре ...
  • 34-й скорый (Андрей Малюков, боевик, драма, 1981) [DVDRip, Не требуется]
  • Нейтральные воды (Владимир Беренштейн, драма, 1968) [DVDRip, Не требуется]
  • Вы чье, старичье? (Иосиф Хейфиц, драма, 1988) [DVDRip, Не требуется]
  • Выстрел (Наум Трахтенберг, драма, 1966) [DVDRip, Не требуется]
  • Четвертый (Александр Столпер, драма, 1972) [DVDRip, Не требуется]
  • Француз (Галина Данелия-Юркова, драма, комедия, 1988) [DVDRip, Не требуется ...
  • Гиперболоид инженера Гарина (Александр Гинцбург, фантастика, 1965) [DVDRip, ...
  • Лес (Владимир Мотыль, драма, 1980) [DVDRip, Не требуется]
  • Левша (Сергей Овчаров, драма, комедия, 1986) [DVDRip, Не требуется]
  • Комиссар (Александр Аскольдов, драма, военный, 1967) [DVDRip, Не требуется] ...
  • Фантазеры (Исаак Магитон, И. Сафарова, детский, 1965) [DVDRip, Не требуется ...
  • Чайка (Юлий Карасик, драма, 1972) [DVDRip, Не требуется]
  • Печники (Виктор Храмов, драма, 1982) [DVDRip, Не требуется]
  • Уходя - уходи (Виктор Трегубович, комедия, 1978) [DVDRip, Не требуется]
  • Драгоценный подарок (Александр Роу, семейный, 1956) [DVDRip, Не требуется]
  • Вера, надежда, любовь (Владимир Грамматиков, приключения, 1984) [DVDRip, Не ...
  • Мексиканец (Владимир Каплуновский, драма, 1955) [DVDRip, Не требуется]
  • Воскресенье, половина седьмого (4 части из 4) (Вадим Зобин, криминал, детек ...
  • За облаками – небо (Юрий Егоров, драма, 1973) [DVDRip, Не требуется]
  • Информация
    Посетители, находящиеся в группе Гости, не могут оставлять комментарии к данной публикации.