вход на сайт

Имя пользователя :
Пароль :

Восстановление пароля Регистрация
Айрик (Генрих Малян, драма, семейный, 1972) [DVDRip, Профессиональный (полное дублирование)]
Рейтинг:
(голосов: 1)



[img]{THEME}/images/logopost.png[/img]



Айрик

Год выпуска: 1972
Страна: СССР
Производство: Арменфильм
Жанр: драма, семейный

Режиссёр: Генрих Малян
В ролях: Фрунзик Мкртчян, Азат Шеренц, Вардуи Вардересян, Грачья Костанян, Х. Даллакян, Ашот Меликджанян, Шаке Тухманян, Саркис Чрчян, А. Никогосян, Карина Сукиасян

Перевод: Профессиональный (полное дублирование)
Субтитры: Отсутствуют

Описание:
В большую и беспокойную семью ереванского рабочего Овсепа Манусяна приезжает из деревни его отец — старый Погос. Действие картины сосредоточено в основном на событиях, происходящих внутри этого семейства — смешных и грустных, значительных и малозначительных, радостных и печальных.


Дополнительно:
MediaInfo ▼Text
Общее
Полное имя :J:АйрикAyrik.DVDRip.avi
Формат :AVI
Размер :1.09 GiB
Продолжительность :01:14:30.368
Общий поток :2 101 Kbps
Программа кодирования :VirtualDubModRus 1.5.10.2 (build 2542/release)
Библиотека кодирования :VirtualDubMod build 2542/release

Видео
Идентификатор :0
Формат :MPEG-4 Visual
Параметр BVOP формата :Yes
Параметр Qpel формата :No
Параметр GMC формата :0
Параметр Matrix формата :Default (H.263)
Идентификатор кодека :DX50
Продолжительность :1h 14mn 30s 360ms
Битрейт :1 900 Kbps
Ширина :704 pixels
Высота :320 pixels
Соотношение сторон :2.200
Частота кадров :25.000 fps
Глубина цвета :8 bits
Подвыборка цветности :4:2:0
Цветовое пространство :YUV
Тип развертки :Progressive
Бит/(Пиксели*Кадры) :0.337
Размер потока :1 012 MiB (90%)
Библиотека кодирования :DivX503b2676p

Аудио #1
Идентификатор :1
Формат :AC-3
Формат/Информация :Audio Coding 3
Идентификатор кодека :2000
Продолжительность :01:14:30.368
Вид битрейта :Constant
Битрейт :192 Kbps
Канал(ы) :2 channels
Расположение каналов :Front: L R
Частота :48.0 KHz
Битовая глубина :16 bits
Метод сжатия :Lossy
Размер потока :102 MiB (9%)



Тех. данные:
Качество:&
06d7fbcb8f06d535828ff00da5cc507a8f084556Айрик (Генрих Малян, драма, семейный, 1972) [DVDRip, Профессиональный (полное дублирование)] Айрик (Генрих Малян, драма, семейный, 1972) [DVDRip, Профессиональный (полное дублирование)] " />

Аплоадер: Админ, дата: 18-04-2013, 11:42, торрент скачан: 359 раз

Понравилась раздача? Посмотрите эти:
  • Геркус Мантас (2 части из 2) (Марионас Гедрис, драма, 1972) [SATRip, Профес ...
  • Наапет (Генрих Малян, драма, 1977) [DVDRip, Профессиональный (полное дублир ...
  • Мы и наши горы (Генрих Малян, драма, комедия, 1969) [DVDRip, Профессиональн ...
  • Кукарача (Кети Долидзе, Сико Долидзе, драма, 1982) [DVDRip, Профессиональны ...
  • Гикор (Сергей Исраелян, драма, семейный, 1982) [DVDRip, Профессиональный (п ...
  • Четвертый (Александр Столпер, драма, 1972) [DVDRip, Не требуется]
  • Тоска (Фрунзе Довлатян, драма, 1990) [DVDRip, Профессиональный (полное дубл ...
  • Украденный поезд (Владимир Янчев, драма, 1971) [DVDRip, Профессиональный (п ...
  • Ох, уж эта Настя! (Юрий Победоносцев, семейный, 1972) [DVDRip, Не требуется ...
  • Двенадцать месяцев (2 части из 2) (Анатолий Граник, фэнтези, семейный, 1972 ...
  • Убийство Генриха IV / Lassassinat dHenri IV: 14 mai 1610 (Жак Малатье, исто ...
  • Тропой бескорыстной любви (Агаси Бабаян, драма, 1972) [DVDRip, Не требуется ...
  • Черная гора (Александр Згуриди, драма, семейный, 1972) [DVDRip, Профессиона ...
  • Пропавшая грамота (Борис Ивченко, фэнтези, комедия, 1972) [DVDRip, Професси ...
  • Чайка (Юлий Карасик, драма, 1972) [DVDRip, Не требуется]
  • Чудак из пятого «Б» (Илья Фрэз, комедия, семейный, 1972) [DVDRip, Не требуе ...
  • Табачный капитан (Игорь Усов, мюзикл, комедия, история, 1972) [DVDRip, Не т ...
  • Слуги дьявола на Чёртовой мельнице (Александр Лейманис, комедия, приключени ...
  • Последний переход (Амангельды Тажбаев, боевик, 1981) [DVDRip, Профессиональ ...
  • Приключения маленького Мука (Елизавета Кимягарова, мюзикл, семейный, 1983) ...
  • Пощёчина / Կտոր մը երկինք (Генрих Малян, Лирическая комедия, 1980) [DVDRip, ...
  • Пощечина (Генрих Малян, драма, мелодрама, комедия, 1980) [DVDRip, Оригинал] ...
  • Драгоценный подарок (Александр Роу, семейный, 1956) [DVDRip, Не требуется]
  • Зеленый фургон (Генрих Габай, боевик, приключения, 1959) [DVDRip, Не требуе ...
  • Приключения Кроша (Генрих Оганесян, семейный, 1961) [DVDRip, Не требуется]
  • Информация
    Посетители, находящиеся в группе Гости, не могут оставлять комментарии к данной публикации.