вход на сайт

Имя пользователя :
Пароль :

Восстановление пароля Регистрация
Акваланги на дне (Евгений Шерстобитов, боевик, приключения, семейный, 1965) [DVDRip, Не требуется]
Рейтинг:
(голосов: 1)



[img]{THEME}/images/logopost.png[/img]



Акваланги на дне

Год выпуска: 1965
Страна: СССР
Производство: Студия Довженко
Жанр: боевик, приключения, семейный

Режиссёр: Евгений Шерстобитов
В ролях: Татьяна Клюева, Рафик Сабиров, Геннадий Юхтин, Владимир Кисленко, Лев Перфилов, Олег Быков, Александр Гай, Николай Крюков, Витольд Янпавлис, Дмитрий Капка

Перевод: Не требуется
Субтитры: Отсутствуют

Описание:
Подростка из пограничного приморского поселка Ромку Марченко, как хорошего пловца, приглашают в качестве дублера исполнителя главной роли. В первый съемочный день, Ромка замечает на пляже след нарушителя границы и сообщает об этом на заставу…


Дополнительно:
MediaInfo ▼Text
Общее
Полное имя :L:Акваланги на днеАкваланги на дне.avi
Формат :AVI
Размер :688 MiB
Продолжительность :01:20:15.000
Общий поток :1 198 Kbps
Программа кодирования :VirtualDubMod 1.5.10.2 (build 2540/release)
Библиотека кодирования :VirtualDubMod build 2540/release

Видео
Идентификатор :0
Формат :MPEG-4 Visual
Профиль формата :Advanced [email protected]
Параметр BVOP формата :2
Параметр Qpel формата :No
Параметр GMC формата :0
Параметр Matrix формата :Default (MPEG)
Идентификатор кодека :XVID
Продолжительность :1h 20mn 15s 0ms
Битрейт :1 060 Kbps
Ширина :672 pixels
Высота :368 pixels
Соотношение сторон :1.826
Частота кадров :25.000 fps
Глубина цвета :8 bits
Подвыборка цветности :4:2:0
Цветовое пространство :YUV
Тип развертки :Progressive
Бит/(Пиксели*Кадры) :0.171
Размер потока :609 MiB (89%)
Библиотека кодирования :XviD0046

Аудио #1
Идентификатор :1
Формат :MPEG Audio
Идентификатор кодека :55
Продолжительность :01:20:14.880
Вид битрейта :Constant
Битрейт :128 Kbps
Канал(ы) :2 channels
Частота :48.0 KHz
Метод сжатия :Lossy
Размер потока :73.5 MiB (11%)



Тех. данные:
Качество:DVDRip
Продолжительность:01:20:10 час

Формат: AVI
Видео кодек: XviD
Аудио кодек: MPA1L3
Видео: 672 x 368 (16:9),
20ef7db4d8ceaa4245fd02c5c6b9e76171d3b837Акваланги на дне (Евгений Шерстобитов, боевик, приключения, семейный, 1965) [DVDRip, Не требуется] Акваланги на дне (Евгений Шерстобитов, боевик, приключения, семейный, 1965) [DVDRip, Не требуется] " />

Аплоадер: Админ, дата: 18-04-2013, 11:39, торрент скачан: 359 раз

Понравилась раздача? Посмотрите эти:
  • Золотые яблоки (Фёдор Филиппов, семейный, 1954) [DVDRip, Не требуется]
  • Конец операции «Резидент» (2 части из 2) (Вениамин Дорман, боевик, приключе ...
  • Защитник Седов (Евгений Цымбал, драма, 1988) [DVDRip, Не требуется]
  • Тачанка с Юга (Евгений Шерстобитов, приключения, 1977) [DVDRip, Не требуетс ...
  • Семьдесят два градуса ниже нуля (Сергей Данилин, Евгений Татарский, боевик, ...
  • Таинственная находка (Борис Бунеев, детский, приключения, 1954) [DVDRip, Не ...
  • Рыжик (Илья Фрэз, приключения, семейный, 1960) [DVDRip, Не требуется]
  • Приключения Толи Клюквина (Виктор Эйсымонт, комедия, семейный, 1964) [DVDRi ...
  • Пакет (Владимир Назаров, комедия, приключения, семейный, 1965) [DVDRip, Не ...
  • Город мастеров (Владимир Бычков, фэнтези, приключения, семейный, история, 1 ...
  • Гиперболоид инженера Гарина (Александр Гинцбург, фантастика, 1965) [DVDRip, ...
  • Князь Игорь (Роман Тихомиров, мюзикл, приключения, 1969) [DVDRip, Не требуе ...
  • Акваланги на дне (Евгений Шерстобитов, боевик, приключения, семейный, 1965 ...
  • Фантазеры (Исаак Магитон, И. Сафарова, детский, 1965) [DVDRip, Не требуется ...
  • Подарок чёрного колдуна (Борис Рыцарев, фэнтези, приключения, семейный, 197 ...
  • Тридцать три (Георгий Данелия, комедия, 1965) [DVDRip, Не требуется]
  • У меня есть лев (2 части из 2) (Константин Бромберг, драма, комедия, приклю ...
  • Приключения желтого чемоданчика (Илья Фрэз, комедия, семейный, 1970) [DVDRi ...
  • После дождичка, в четверг... (Михаил Юзовский, семейный, 1987) [DVDRip, Не ...
  • Большие гонки / The Great race (Блейк Эдвардс, приключения, боевик, комедия ...
  • Информация
    Посетители, находящиеся в группе Гости, не могут оставлять комментарии к данной публикации.