вход на сайт

Имя пользователя :
Пароль :

Восстановление пароля Регистрация
Аленка (Борис Барнет, комедия, 1961) [DVDRip, Не требуется]
Рейтинг:
(голосов: 1)



[img]{THEME}/images/logopost.png[/img]



Аленка

Год выпуска: 1961
Страна: СССР
Производство: Мосфильм
Жанр: комедия

Режиссёр: Борис Барнет
В ролях: Наталия Оводова, Ирина Зарубина, Василий Шукшин, Николай Боголюбов, Эраст Гарин, Николай Крючков, Евгений Шутов, В. Григорьева, Майя Менглет, Нина Никитина

Перевод: Не требуется
Субтитры: Отсутствуют

Описание:
В повествовании, которое ведется от имени девятилетней Аленки и ее попутчиков, немало и юмористических красок, и драматизма. Благодаря точно найденным художественным деталям зритель узнает правду об одном из «героических этапов» построения социализма.


Дополнительно:
MediaInfo ▼Text
Общее
Полное имя :L:АленкаAlenka.avi
Формат :AVI
Размер :1.14 GiB
Продолжительность :01:23:57.080
Общий поток :1 937 Kbps
Программа кодирования :VirtualDubMod 1.5.10.2 (build 2540/release)
Библиотека кодирования :VirtualDubMod build 2540/release

Видео
Идентификатор :0
Формат :MPEG-4 Visual
Профиль формата :Advanced [email protected]
Параметр BVOP формата :2
Параметр Qpel формата :No
Параметр GMC формата :0
Параметр Matrix формата :Default (MPEG)
Идентификатор кодека :XVID
Продолжительность :1h 23mn 57s 80ms
Битрейт :1 800 Kbps
Ширина :688 pixels
Высота :512 pixels
Соотношение сторон :1.344
Частота кадров :25.000 fps
Глубина цвета :8 bits
Подвыборка цветности :4:2:0
Цветовое пространство :YUV
Тип развертки :Progressive
Бит/(Пиксели*Кадры) :0.204
Размер потока :1.06 GiB (93%)
Библиотека кодирования :XviD0046C

Аудио #1
Идентификатор :1
Формат :MPEG Audio
Идентификатор кодека :55
Продолжительность :01:23:57.072
Вид битрейта :Constant
Битрейт :128 Kbps
Канал(ы) :2 channels
Частота :48.0 KHz
Метод сжатия :Lossy
Размер потока :76.9 MiB (7%)Тех. данные:
Качество:DVDRip
Продолжительность:01:23:50 час

Формат: AVI
Видео кодек: XviD
Аудио кодек: MPA1L3
Видео: 688 x 512 (4:3), 25.000 fps, 1 800 Kbps, 0.204 bit/pixel
Аудио : 48.
80d61ed66a96f6e9656fd95c6da85805e0135809Аленка (Борис Барнет, комедия, 1961) [DVDRip, Не требуется] Аленка (Борис Барнет, комедия, 1961) [DVDRip, Не требуется] " />

Аплоадер: Админ, дата: 18-04-2013, 11:28, торрент скачан: 359 раз

Понравилась раздача? Посмотрите эти:
  • Борец и клоун (Борис Барнет, Константин Юдин, драма, спорт, 1957) [DVDRip, ...
  • Девушка джигит (Павел Боголюбов, комедия, 1955) [DVDRip, Не требуется]
  • Гражданин Лёшка (Виктор Крючков, комедия, 1980) [DVDRip, Не требуется]
  • Человек идёт за солнцем (Михаил Калик, драма, 1961) [DVDRip, Не требуется]
  • Ход конем (Татьяна Лукашевич, комедия, 1962) [DVDRip, Не требуется]
  • Таинственная находка (Борис Бунеев, детский, приключения, 1954) [DVDRip, Не ...
  • Деревня Утка (Борис Бунеев, семейный, 1976) [DVDRip, Не требуется]
  • Иван да Марья (Борис Рыцарев, фэнтези, мелодрама, комедия, семейный, музыка ...
  • Завтрак на траве (Николай Александрович, детский, комедия, 1979) [DVDRip, Н ...
  • Друг мой, Колька!.. (Александр Митта, Алексей Салтыков, драма, 1961) [DVDRi ...
  • Окраина // Последний табор (Борис Барнет, Моисей Голдблат, Евгений Шнейдер, ...
  • Князь Игорь (Роман Тихомиров, мюзикл, приключения, 1969) [DVDRip, Не требуе ...
  • Капитанская дочка (Владимир Каплуновский, драма, 1958) [DVDRip, Не требуетс ...
  • Пиковая Дама (Роман Тихомиров, мюзикл, драма, 1961) [DVDRip, Не требуется]
  • Пес Барбос и необычный кросс / Самогонщики / «Сто грамм» для храбрости (Лео ...
  • Солёный пёс (Николай Кошелев, драма, комедия, 1973) [DVDRip, Не требуется]
  • Печники (Виктор Храмов, драма, 1982) [DVDRip, Не требуется]
  • Подарок чёрного колдуна (Борис Рыцарев, фэнтези, приключения, семейный, 197 ...
  • Славный малый (Борис Барнет, военный, 1943) [DVDRip, Не требуется]
  • Полустанок (Борис Барнет, мелодрама, комедия, 1963) [DVDRip, Не требуется]
  • Информация
    Посетители, находящиеся в группе Гости, не могут оставлять комментарии к данной публикации.