вход на сайт

Имя пользователя :
Пароль :

Восстановление пароля Регистрация
"Мерседес" уходит от погони (Юрий Ляшенко, военный, 1980) [DVDRip, Не требуется]
Рейтинг:
(голосов: 1)



[img]{THEME}/images/logopost.png[/img]



"Мерседес" уходит от погони

Год выпуска: 1980
Страна: СССР
Производство: Студия Довженко
Жанр: военный

Режиссёр: Юрий Ляшенко
В ролях: Герман Юшко, Михаил Голубович, Анатолий Рудаков, Игорь Ливанов, Анатолий Барчук, Борис Юрченко, Вилорий Пащенко, Алексей Горячев, Виталий Васильев, Юрий Моцарев

Перевод: Не требуется
Субтитры: Отсутствуют

Описание:
История одной боевой операции времен Второй мировой войны. На трофейном «Мерседесе» несколько смельчаков совершают дерзкий рейд в тыл противника. Их путь идет по дорогам, патрулируемым фашистами.


Дополнительно:
MediaInfo ▼Text
Общее
Полное имя :L:Мерседес уходит от погониMersedes uhodit ot pogoni.avi
Формат :AVI
Размер :1.37 GiB
Продолжительность :01:13:50.520
Общий поток :2 650 Kbps
Программа кодирования :VirtualDubMod 1.5.10.2 (build 2540/release)
Библиотека кодирования :VirtualDubMod build 2540/release

Видео
Идентификатор :0
Формат :MPEG-4 Visual
Параметр BVOP формата :1
Параметр Qpel формата :No
Параметр GMC формата :0
Параметр Matrix формата :Default (H.263)
Идентификатор кодека :DX50
Продолжительность :1h 13mn 50s 520ms
Битрейт :2 256 Kbps
Ширина :704 pixels
Высота :352 pixels
Соотношение сторон :2.000
Частота кадров :25.000 fps
Глубина цвета :8 bits
Подвыборка цветности :4:2:0
Цветовое пространство :YUV
Тип развертки :Progressive
Бит/(Пиксели*Кадры) :0.364
Размер потока :1.16 GiB (85%)
Библиотека кодирования :DivX503b2816p

Аудио #1
Идентификатор :1
Формат :AC-3
Формат/Информация :Audio Coding 3
Идентификатор кодека :2000
Продолжительность :01:13:50.496
Вид битрейта :Constant
Битрейт :384 Kbps
Канал(ы) :6 channels
Расположение каналов :Front: L C R, Side: L R, LFE
Частота :48.0 KHz
Битовая глубина :16 bits
Метод сжатия :Lossy
Размер потока :203 MiB (14%)



Тех. данные:
Качество:DVDRip
Продолжительность:
fcebc36498f2c39dac668f2fa0df832ef60a86e5"Мерседес" уходит от погони (Юрий Ляшенко, военный, 1980) [DVDRip, Не требуется] "Мерседес" уходит от погони (Юрий Ляшенко, военный, 1980) [DVDRip, Не требуется] " />

Аплоадер: Админ, дата: 18-04-2013, 09:55, торрент скачан: 359 раз

Понравилась раздача? Посмотрите эти:
  • Бой под Соколом (Александр Разумный, военный, 1942) [DVDRip, Не требуется]
  • Агония (2 части из 2) (Элем Климов, драма, биография, история, 1981) [DVDRi ...
  • Шел четвертый год войны... (Георгий Николаенко, военный, 1983) [DVDRip, Не ...
  • Путь в "Сатурн" (Виллен Азаров, военный, 1967) [DVDRip, Не требуется]
  • Конец "Сатурна" (Виллен Азаров, Мосфильм, 1967) [DVDRip, Не требуется]
  • Проверка на дорогах (Алексей Герман, драма, военный, 1971) [DVDRip, Не треб ...
  • Эскадрон гусар летучих (Никита Хубов, Станислав Ростоцкий, военный, 1980) [ ...
  • Адъютант его превосходительства (5 частей из 5) (Евгений Ташков, мелодрама, ...
  • Степь (2 части из 2) (Сергей Бондарчук, драма, история, 1977) [DVDRip, Не т ...
  • Славный малый (Борис Барнет, военный, 1943) [DVDRip, Не требуется]
  • Слушать в отсеках (2 части из 2) (Николай Засеев-Руденко, приключения, 1985 ...
  • Табор уходит в небо (Эмиль Лотяну, мюзикл, драма, мелодрама, 1976) [DVDRip, ...
  • Шельменко-денщик (Андрей Тутышкин, мюзикл, комедия, 1971) [DVDRip, Не требу ...
  • Путь корабля (Юрий Тарич, драма, приключения, 1935) [DVDRip, Не требуется]
  • Тихий Дон (3 части из 3) (Сергей Герасимов, драма, военный, 1957) [DVDRip, ...
  • Подпольный обком действует (4 части из 4) (Анатолий Буковский, военный, 197 ...
  • В лесах под Ковелем (3 части из 3) (Юрий Тупицкий, военный, история, 1984) ...
  • "Мерседес" уходит от погони (Юрий Ляшенко, Военный фильм, 1980) [ DVDRip, Н ...
  • Р.В.С. (Алексей Мороз, военный, 1977) [DVDRip, (2х)Оригинал (русский)]
  • За облаками – небо (Юрий Егоров, драма, 1973) [DVDRip, Не требуется]
  • Информация
    Посетители, находящиеся в группе Гости, не могут оставлять комментарии к данной публикации.