вход на сайт

Имя пользователя :
Пароль :

Восстановление пароля Регистрация
34-й скорый (Андрей Малюков, боевик, драма, 1981) [DVDRip, Не требуется]
Рейтинг:
(голосов: 1)



[img]{THEME}/images/logopost.png[/img]



34-й скорый

Год выпуска: 1981
Страна: СССР
Производство: Мосфильм
Жанр: боевик, драма

Режиссёр: Андрей Малюков
В ролях: Лев Дуров, Елена Майорова, Альгимантас Масюлис, Александр Фатюшин, Александр Рыщенков, Петерис Гаудиньш, Марина Шиманская, Ирина Печерникова, Валерий Рыжаков, Григорий Маликов

Перевод: Не требуется
Субтитры: Отсутствуют

Описание:
Скорый поезд N34 отправился точно по расписанию. Пассажиры спокойно готовились ко сну, когда в опустевшем купе от непогашенной сигареты загорелась занавеска. Вскоре загорелся и вагон. Катастрофа неминуема. Железнодорожники и пассажиры совместными усилиями пытаются предотвратить несчастье и спасти сотни людей…


Дополнительно:
MediaInfo ▼Text
Общее
Полное имя :K:34-й скорый34 skoryy.DVDRip.avi
Формат :AVI
Размер :1.09 GiB
Продолжительность :01:18:47.776
Общий поток :1 986 Kbps
Программа кодирования :VirtualDubModRus 1.5.10.2 (build 2542/release)
Библиотека кодирования :VirtualDubMod build 2542/release

Видео
Идентификатор :0
Формат :MPEG-4 Visual
Параметр BVOP формата :Yes
Параметр Qpel формата :No
Параметр GMC формата :0
Параметр Matrix формата :Default (H.263)
Идентификатор кодека :DX50
Продолжительность :1h 18mn 47s 760ms
Битрейт :1 784 Kbps
Ширина :720 pixels
Высота :320 pixels
Соотношение сторон :2.250
Частота кадров :25.000 fps
Глубина цвета :8 bits
Подвыборка цветности :4:2:0
Цветовое пространство :YUV
Тип развертки :Progressive
Бит/(Пиксели*Кадры) :0.310
Размер потока :1 005 MiB (90%)
Библиотека кодирования :DivX503b2676p

Аудио #1
Идентификатор :1
Формат :AC-3
Формат/Информация :Audio Coding 3
Идентификатор кодека :2000
Продолжительность :01:18:47.776
Вид битрейта :Constant
Битрейт :192 Kbps
Канал(ы) :2 channels
Расположение каналов :Front: L R
Частота :48.0 KHz
Битовая глубина :16 bits
Метод сжатия :Lossy
Размер потока :108 MiB (10%)


6b606226395d808bc7cccbe457ddba34b495971b34-й скорый (Андрей Малюков, боевик, драма, 1981) [DVDRip, Не требуется] 34-й скорый (Андрей Малюков, боевик, драма, 1981) [DVDRip, Не требуется] " />

Аплоадер: Админ, дата: 18-04-2013, 09:50, торрент скачан: 359 раз

Понравилась раздача? Посмотрите эти:
  • Василий и Василиса (Ирина Поплавская, драма, мелодрама, биография, 1981) [D ...
  • Мужики!.. (Искра Бабич, драма, 1981) [DVDRip, Не требуется]
  • Два долгих гудка в тумане (Валерий Родченко, боевик, 1980) [DVDRip, Не треб ...
  • Вы чье, старичье? (Иосиф Хейфиц, драма, 1988) [DVDRip, Не требуется]
  • Эзоп (Олег Рябоконь, драма, история, 1981) [DVDRip, Не требуется]
  • Четвертый (Александр Столпер, драма, 1972) [DVDRip, Не требуется]
  • Цыганское счастье (Сергей Никоненко, драма, 1981) [DVDRip, Не требуется]
  • Перехват (Сергей Тарасов, боевик, 1986) [DVDRip, Не требуется]
  • Опасный возраст (Александр Прошкин, драма, 1981) [DVDRip, Не требуется]
  • Комиссар (Александр Аскольдов, драма, военный, 1967) [DVDRip, Не требуется] ...
  • Карнавал (2 части из 2) (Татьяна Лиознова, мюзикл, комедия, 1981) [DVDRip, ...
  • Чайка (Юлий Карасик, драма, 1972) [DVDRip, Не требуется]
  • Дядя Ваня (Андрей Кончаловский, драма, 1971) [DVDRip, Не требуется]
  • Непобедимый (Юрий Борецкий, боевик, 1983) [DVDRip, Не требуется]
  • Сотрудник ЧК (Борис Волчек, боевик, история, 1963) [DVDRip, Не требуется]
  • Холодное лето пятьдесят третьего (Александр Прошкин, боевик, драма, кримина ...
  • Последний переход (Амангельды Тажбаев, боевик, 1981) [DVDRip, Профессиональ ...
  • Голубая стрела (Леонид Эстрин, боевик, 1958) [DVDRip, Не требуется]
  • Дядюшкин сон (2 части из2) (Александр Орлов, драма, комедия, 1981) [DVDRip, ...
  • К Черному морю (Андрей Тутышкин, мелодрама, комедия, 1957) [DVDRip, Не треб ...
  • Информация
    Посетители, находящиеся в группе Гости, не могут оставлять комментарии к данной публикации.