вход на сайт

Имя пользователя :
Пароль :

Восстановление пароля Регистрация
Анафема (Сергей Гиппиус, драма, 1960) [DVDRip, Не требуется]
Рейтинг:
(голосов: 1)



[img]{THEME}/images/logopost.png[/img]



Анафема

Год выпуска: 1960
Страна: СССР
Производство: Ленфильм
Жанр: драма

Режиссёр: Сергей Гиппиус
В ролях: Степан Крылов, Игорь Ефимов, Николай Гаврилов, Александр Афанасьев, Николай Лебедев, Любовь Малиновская, Федор Никитин, Павел Первушин, Роза Свердлова, Тамара Тимофеева

Перевод: Не требуется
Субтитры: Отсутствуют

Описание:
Россия, 1900 год. Дьякон Олимпий, ранее ничем не выделяющийся среди служителей церкви, вдруг начинает проявлять интерес к светской литературе. Во всем соглашаясь с вероотступником графом Л. Н. Толстым, дьякон сам стал колоть дрова, носить воду и делать все то, что мог делать хорошо…


Дополнительно:
MediaInfo ▼Text
Общее
Полное имя :D:АнафемаAnaphema.1961.avi
Формат :AVI
Размер :519 MiB
Продолжительность :00:44:15.880
Общий поток :1 638 Kbps

Видео
Идентификатор :0
Формат :MPEG-4 Visual
Профиль формата :[email protected]
Параметр BVOP формата :Yes
Параметр Qpel формата :No
Параметр GMC формата :0
Параметр Matrix формата :Default (H.263)
Идентификатор кодека :XVID
Продолжительность :44mn 15s 880ms
Битрейт :1 500 Kbps
Ширина :720 pixels
Высота :576 pixels
Соотношение сторон :1.250
Частота кадров :25.000 fps
Глубина цвета :8 bits
Цветовое пространство :YUV
Тип развертки :Progressive
Бит/(Пиксели*Кадры) :0.145
Размер потока :475 MiB (92%)

Аудио #1
Идентификатор :1
Формат :MPEG Audio
Идентификатор кодека :55
Продолжительность :00:44:15.812
Вид битрейта :Constant
Битрейт :128 Kbps
Канал(ы) :2 channels
Частота :44.1 KHz
Метод сжатия :Lossy
Размер потока :40.5 MiB (8%)



Тех. данные:
Качество:DVDRip
Продолжительность:00:44:10 час

Формат: AVI
Видео кодек:
Аудио кодек: MPA1L3
Видео: 720 x 576 (5:4), 25.000 fps, 1 500 Kbps, 0.145 bit/pixel
Аудио : 44.1 KHz, , 2 channels (), 128 Kbps



976738fa2dd5b12e6c1d41e3d2b64f162d854135Анафема (Сергей Гиппиус, драма, 1960) [DVDRip, Не требуется] Анафема (Сергей Гиппиус, драма, 1960) [DVDRip, Не требуется] " />

Аплоадер: Админ, дата: 18-04-2013, 09:37, торрент скачан: 359 раз

Понравилась раздача? Посмотрите эти:
  • Сережа (Георгий Данелия, Игорь Таланкин, драма, 1960) [DVDRip, Не требуется ...
  • Ко мне, Мухтар! (Семен Туманов, В. Тиунова, драма, 1964) [DVDRip, Не требуе ...
  • Француз (Галина Данелия-Юркова, драма, комедия, 1988) [DVDRip, Не требуется ...
  • Старшина (Николай Кошелев, драма, 1979) [DVDRip, Не требуется]
  • Рыжик (Илья Фрэз, приключения, семейный, 1960) [DVDRip, Не требуется]
  • Прощай, шпана замоскворецкая... (Александр Панкратов, драма, мелодрама, 198 ...
  • Сапоги (Владимир Немоляев, короткометражка, драма, комедия, 1957) [DVDRip, ...
  • Далеко от Москвы (Александр Столпер, драма, 1950) [DVDRip, Не требуется]
  • Завтрак на траве (Николай Александрович, детский, комедия, 1979) [DVDRip, Н ...
  • Егерь (Герман Ливанов, драма, экранизация, 1960) [DVDRip, Не требуется]
  • Драма (Герман Ливанов, короткометражка, комедия, 1960) [DVDRip, Не требуетс ...
  • Левша (Сергей Овчаров, драма, комедия, 1986) [DVDRip, Не требуется]
  • Капитанская дочка (Владимир Каплуновский, драма, 1958) [DVDRip, Не требуетс ...
  • С террасы / From the Terrace (Марк Робсон, драма, мелодрама, 1960) [DVDRip, ...
  • Мульт-Салют. 30 ч. из 30: Муха-цокотуха/Каникулы Бонифация/Кот в сапогах/Ай ...
  • Чайка (Юлий Карасик, драма, 1972) [DVDRip, Не требуется]
  • Суд (Аида Манасарова, Владимир Скуйбин, драма, детектив, 1963) [DVDRip, Не ...
  • Небывальщина (Сергей Овчаров, комедия, 1983) [DVDRip, Не требуется]
  • Степь (2 части из 2) (Сергей Бондарчук, драма, история, 1977) [DVDRip, Не т ...
  • Судьба человека (Сергей Бондарчук, драма, военный, биография, 1959) [DVDRip ...
  • В начале славных дел (Сергей Герасимов, драма, история, 1980) [DVDRip, Не т ...
  • Тихий Дон (3 части из 3) (Сергей Герасимов, драма, военный, 1957) [DVDRip, ...
  • Дерсу Узала (Агаси Бабаян, приключения, 1961) [DVDRip, Не требуется]
  • Мичман Панин (Михаил Швейцер, приключения, военный, история, 1960) [DVDRip, ...
  • Целуются зори (Сергей Никоненко, комедия, 1978) [DVDRip, Не требуется]
  • Информация
    Посетители, находящиеся в группе Гости, не могут оставлять комментарии к данной публикации.