вход на сайт

Имя пользователя :
Пароль :

Восстановление пароля Регистрация
Белорусский вокзал (Андрей Смирнов, драма, 1971) [DVDRip, Не требуется]
Рейтинг:
(голосов: 1)



[img]{THEME}/images/logopost.png[/img]



Белорусский вокзал

Год выпуска: 1971
Страна: СССР
Производство: Мосфильм, ТО "Товарищ"
Жанр: драма

Режиссёр: Андрей Смирнов
В ролях: Евгений Леонов, Анатолий Папанов, Алексей Глазырин, Всеволод Сафонов, Нина Ургант, Николай Волковмл.
, Любовь Соколова, Маргарита Терехова, Раиса Куркина, Юрий Визбор

Перевод: Не требуется
Субтитры: Отсутствуют

Описание:
Герои фильма расстались на Белорусском вокзале летом 1945-го. Спустя четверть века они встречаются на похоронах боевого товарища. В их душах с новой силой оживает пережитое. Время не властно над их памятью: ветераны сохранили верность фронтовой дружбе, способность жертвовать собой, неистребимую любовь к жизни.


Дополнительно:
MediaInfo ▼Text
Общее
Полное имя :J:Белорусский вокзалBelorusskiy vokzal.avi
Формат :AVI
Размер :745 MiB
Продолжительность :01:35:21.040
Общий поток :1 092 Kbps
Программа кодирования :VirtualDubModRus 1.5.10.2 (build 2542/release)
Библиотека кодирования :VirtualDubMod build 2542/release

Видео
Идентификатор :0
Формат :MPEG-4 Visual
Параметр BVOP формата :1
Параметр Qpel формата :No
Параметр GMC формата :0
Параметр Matrix формата :Default (H.263)
Идентификатор кодека :DX50
Продолжительность :1h 35mn 21s 40ms
Битрейт :954 Kbps
Ширина :656 pixels
Высота :304 pixels
Соотношение сторон :2.158
Частота кадров :25.000 fps
Глубина цвета :8 bits
Подвыборка цветности :4:2:0
Цветовое пространство :YUV
Тип развертки :Progressive
Бит/(Пиксели*Кадры) :0.191
Размер потока :651 MiB (87%)
Библиотека кодирования :DivX503b2676p

Аудио #1
Идентификатор :1
Формат :MPEG Audio
Идентификатор кодека :55
Продолжительность :01:35:20.352
Вид битрейта :Constant
Битрейт :128 Kbps
Канал(ы) :2 channels
Частота :48.0 KHz
Метод сжатия :Lossy
Размер потока :87.3 MiB (12%)



Тех. данные:
Качество:DVDRip
Продолжительность:01:35:20 час

Формат: AVI
Видео кодек: DivX
Аудио кодек: MPA1L3
Видео: 656 x 304 (2.2:
a8e6720964d3a1eefd66140759fac3429d8a4242Белорусский вокзал (Андрей Смирнов, драма, 1971) [DVDRip, Не требуется] Белорусский вокзал (Андрей Смирнов, драма, 1971) [DVDRip, Не требуется] " />

Аплоадер: Админ, дата: 15-04-2013, 18:38, торрент скачан: 359 раз

Понравилась раздача? Посмотрите эти:
  • Журавушка (Николай Москаленко, драма, мелодрама, 1968) [DVDRip, Не требуетс ...
  • 34-й скорый (Андрей Малюков, боевик, драма, 1981) [DVDRip, Не требуется]
  • Вы чье, старичье? (Иосиф Хейфиц, драма, 1988) [DVDRip, Не требуется]
  • Четвертый (Александр Столпер, драма, 1972) [DVDRip, Не требуется]
  • Приключения Толи Клюквина (Виктор Эйсымонт, комедия, семейный, 1964) [DVDRi ...
  • Плохой хороший человек (Иосиф Хейфиц, драма, история, 1973) [DVDRip, Не тре ...
  • Вся королевская рать (3 части из 3) (Наум Ардашников, Александр Гуткович, д ...
  • Зеркало (Андрей Тарковский, драма, биография, 1974) [DVDRip, Не требуется]
  • Оптимистическая трагедия (Самсон Самсонов, драма, военный, история, 1963) [ ...
  • Комиссар (Александр Аскольдов, драма, военный, 1967) [DVDRip, Не требуется] ...
  • Ты и я (Лариса Шепитько, драма, 1971) [DVDRip, Не требуется]
  • Чайка (Юлий Карасик, драма, 1972) [DVDRip, Не требуется]
  • Дядя Ваня (Андрей Кончаловский, драма, 1971) [DVDRip, Не требуется]
  • Непобедимый (Юрий Борецкий, боевик, 1983) [DVDRip, Не требуется]
  • Степь (2 части из 2) (Сергей Бондарчук, драма, история, 1977) [DVDRip, Не т ...
  • Шельменко-денщик (Андрей Тутышкин, мюзикл, комедия, 1971) [DVDRip, Не требу ...
  • Старики-разбойники (Эльдар Рязанов, комедия, 1971) [DVDRip, Не требуется]
  • Путь к причалу (Георгий Данелия, драма, 1963) [DVDRip, Не требуется]
  • Красная площадь (Василий Ордынский, драма, военный, 1971) [DVDRip, Не требу ...
  • Председатель (2 части из 2) (Алексей Салтыков, драма, 1964) [DVDRip, Не тре ...
  • Тихий Дон (3 части из 3) (Сергей Герасимов, драма, военный, 1957) [DVDRip, ...
  • Белорусский вокзал (в рол. Е. Леонов, А. Папанов, драма, 1970) [DVDRip]
  • Белорусский Вокзал (Андрей Смирнов, Драма, 1970 г) [DVD5, Оригинал, реставр ...
  • К Черному морю (Андрей Тутышкин, мелодрама, комедия, 1957) [DVDRip, Не треб ...
  • За облаками – небо (Юрий Егоров, драма, 1973) [DVDRip, Не требуется]
  • Информация
    Посетители, находящиеся в группе Гости, не могут оставлять комментарии к данной публикации.